Mixkatalog
 Einloggen
Login
Passwort

Yearmix 98 Hits: 88  

Yearmix 98


Kurzbeschreibung:
Strictly Dance Records präsentiert Yearmix 98.
 
Crew/DJ: Strictly Dance Reihe: Yearmix
Stil: Dance Erscheinungsjahr: 1999
Anzahl Tonträger: 1 Spielzeit: 74:13
Trackliste:
Cue-Informationen:

FILE "filename.mp3" MP3
  TRACK 01 AUDIO
    INDEX 00 00:00:00
  TRACK 02 AUDIO
    INDEX 01 10:16:19
  TRACK 03 AUDIO
    INDEX 01 22:03:25
  TRACK 04 AUDIO
    INDEX 01 31:36:18
  TRACK 05 AUDIO
    INDEX 01 39:50:29
  TRACK 06 AUDIO
    INDEX 01 46:25:36
  TRACK 07 AUDIO
    INDEX 01 54:11:10
  TRACK 08 AUDIO
    INDEX 01 64:28:04
Wertung: (1)  
Hinzugefügt: 23 August 2010
RSS Feed
RSS Feed
Sprache
Deutsch Englisch Französisch
Mixsuche
Suchbegriff
Genauer Wortlaut
Alle Worte (UND)
Ein Wort (ODER)
Statistik
14581 Mixe eingetragen
14271 Tracklisten
Newsletter
E-Mail
Anmelden
Abmelden
SPONSOREN