Mixkatalog
 Einloggen
Login
Passwort

The 011th Story Hits: 1070  

The 011th Story


Kurzbeschreibung:
Studio 33 präsentiert Down Be Low, The 11th Story - Bang Edition, gemixt von DJ Harry.
 
Crew/DJ: Studio 33 Reihe: Story
Stil: Dance Erscheinungsjahr: 1997
CDs: 1 Spielzeit: 74:00
Trackliste:
Cue-Informationen:

FILE "filename.mp3" MP3
  TRACK 01 AUDIO
    INDEX 01 00:00:00
  TRACK 02 AUDIO
    INDEX 01 01:32:05
  TRACK 03 AUDIO
    INDEX 01 02:59:15
  TRACK 04 AUDIO
    INDEX 01 04:16:15
  TRACK 05 AUDIO
    INDEX 01 05:25:63
  TRACK 06 AUDIO
    INDEX 01 06:49:29
  TRACK 07 AUDIO
    INDEX 01 08:04:22
  TRACK 08 AUDIO
    INDEX 01 09:29:49
  TRACK 09 AUDIO
    INDEX 01 10:50:69
  TRACK 10 AUDIO
    INDEX 01 11:54:05
  TRACK 11 AUDIO
    INDEX 01 12:36:05
  TRACK 12 AUDIO
    INDEX 01 13:40:39
  TRACK 13 AUDIO
    INDEX 01 15:37:26
  TRACK 14 AUDIO
    INDEX 01 16:06:72
  TRACK 15 AUDIO
    INDEX 01 17:16:43
  TRACK 16 AUDIO
    INDEX 01 19:09:62
  TRACK 17 AUDIO
    INDEX 01 20:49:08
  TRACK 18 AUDIO
    INDEX 01 21:34:29
  TRACK 19 AUDIO
    INDEX 01 22:09:19
  TRACK 20 AUDIO
    INDEX 01 23:04:32
  TRACK 21 AUDIO
    INDEX 01 23:56:50
  TRACK 22 AUDIO
    INDEX 01 25:27:69
  TRACK 23 AUDIO
    INDEX 01 26:07:58
  TRACK 24 AUDIO
    INDEX 01 27:53:02
  TRACK 25 AUDIO
    INDEX 01 28:34:09
  TRACK 26 AUDIO
    INDEX 01 29:33:04
  TRACK 27 AUDIO
    INDEX 01 30:44:29
  TRACK 28 AUDIO
    INDEX 01 31:25:24
  TRACK 29 AUDIO
    INDEX 01 32:11:23
  TRACK 30 AUDIO
    INDEX 01 33:02:39
  TRACK 31 AUDIO
    INDEX 01 45:09:67
  TRACK 32 AUDIO
    INDEX 01 46:51:30
  TRACK 33 AUDIO
    INDEX 01 47:58:58
  TRACK 34 AUDIO
    INDEX 01 48:32:38
  TRACK 35 AUDIO
    INDEX 01 49:25:37
  TRACK 36 AUDIO
    INDEX 01 50:26:37
  TRACK 37 AUDIO
    INDEX 01 51:21:64
  TRACK 38 AUDIO
    INDEX 01 52:49:19
  TRACK 39 AUDIO
    INDEX 01 54:46:44
  TRACK 40 AUDIO
    INDEX 01 55:47:66
  TRACK 41 AUDIO
    INDEX 01 57:13:20
  TRACK 42 AUDIO
    INDEX 01 57:34:38
  TRACK 43 AUDIO
    INDEX 01 58:16:60
  TRACK 44 AUDIO
    INDEX 01 59:41:07
  TRACK 45 AUDIO
    INDEX 01 60:42:21
  TRACK 46 AUDIO
    INDEX 01 61:43:48
  TRACK 47 AUDIO
    INDEX 01 62:56:35
  TRACK 48 AUDIO
    INDEX 01 63:55:42
  TRACK 49 AUDIO
    INDEX 01 65:14:12
  TRACK 50 AUDIO
    INDEX 01 65:28:15
  TRACK 51 AUDIO
    INDEX 01 65:51:48
  TRACK 52 AUDIO
    INDEX 01 66:15:06
  TRACK 53 AUDIO
    INDEX 01 67:13:54
  TRACK 54 AUDIO
    INDEX 01 68:35:56
  TRACK 55 AUDIO
    INDEX 01 68:59:03
  TRACK 56 AUDIO
    INDEX 01 69:33:74
  TRACK 57 AUDIO
    INDEX 01 70:11:66
  TRACK 58 AUDIO
    INDEX 01 70:46:62
  TRACK 59 AUDIO
    INDEX 01 71:09:71
  TRACK 60 AUDIO
    INDEX 01 71:39:18
  TRACK 61 AUDIO
    INDEX 01 72:31:44
  TRACK 62 AUDIO
    INDEX 01 73:06:12
Wertung: (4)  
Hinzugefügt: 23 January 2009
RSS Feed
RSS Feed
Sprache
Deutsch Englisch Französisch
Mixsuche
Suchbegriff
Genauer Wortlaut
Alle Worte (UND)
Ein Wort (ODER)
Statistik
30199 Mixe eingetragen
28541 Tracklisten
Newsletter
E-Mail
Anmelden
Abmelden
SPONSOREN