Mixkatalog
 Einloggen
Login
Passwort

The 010th Story Hits: 2  

The 010th Story


Kurzbeschreibung:
Studio 33 präsentiert Mars Attacks, The 10th Story, Spezial Double Pack Edition, gemixt von DJ Beatbreaker.
 
Crew/DJ: Studio 33 Reihe: Story
Stil: Dance Erscheinungsjahr: 1997
Anzahl Tonträger: 2 Spielzeit: 145:58
Trackliste:
    Compact Disc 1
    Mars Attacks I:
  1. Intro
  2. Solar Base - Jeanny Return
  3. Disco Nation - Rock Da Jam
  4. Chumi DJ - Come Back Before You Leave
  5. Glow - I Am Gonna Be
  6. Le Click - Call Me
  7. Brooklyn Bounce - Get Ready To Bounce
  8. Disco Nation - Rock Da Jam
  9. Kadoc - Rock The Bells
  10. Dune - Nothing Compares To You
  11. Morgana - When I Dream Of You
  12. Parasonic - Power Of Love
  13. Porn Kings - Amour
  14. Joosy - Indian Power
  15. Alis - Let It Out
  16. Reset feat. Danni - You Got The Key
  17. Dirty Boys - Do It Well
  18. Disco Citizens - Footprint
  19. Dr. DJ Cerla - The DJ It's Saturday Night
  20. DJ Quicksilver - Free
  21. Celine - All I Need Is Love
  22. Imperio - Wings Of Love
  23. Interactive - Wake Up
  24. Flash Of Fantasy - Flash Of Fantasy
  25. D.O.N.S. - Drop The Gun
  26. Blackwood - My Love For You
  27. The Course - Ain't Nobody
  28. N-Trance - D.I.S.C.O.
  29. Pet Shop Boys - A Red Letter Day
  30. Amber - Colour Of Love
  31. House Lizards - Check Out Da Bassline
  32. Real Stuff - Club It
  33. Hyper Trophy - Just Come Back To Me
  34. A-Trax - A Dream Within
  35. Velvet - Show Me The Way
  36. Modern Talking - You're My Heart, You're My Soul
  37. Skanky - Where's My Money
  38. Sash! - Ecuardor
  39. Bossi - Funky Technican
  40. U Me 2 - The Night
  41. Tiggy - Ring-A-Ling
  42. Hypnotic Beat - Funky Divas
  43. Leroy & Eddie - Careless Whisper
  44. Die Fantastischen Vier - Der Picknicker
  45. Marcel Romanoff - I'd Love You To Want Me
  46. Nana - Lonely
  47. Double feature - Get Closer
  48. Outkast - Atliens
  49. Lisa Stansfield - The Real Thing
  50. Spice Girls - Mama
  51. Depeche Mode - It's No Good
  52. 2 Ruff - The Lover In You
  53. Down Low - We Do It Like That
  54. Peter Andre - Natural
  55. Funky Diamonds - I Know That You Want Me
    Compact Disc 2
    Mars Attacks II:
  56. Intro
  57. Yve feat. Alexia - Virtual Reality
  58. Libra - A Second Change
  59. Sancocho - Tumba La Casa
  60. Celvin Rotane - Theme From Magnum
  61. Heartclub - Alone
  62. Energy 52 - Cafe Del Mar '97
  63. Space Junkies - Wippin'
  64. House-O-Matic - Know What I Mean
  65. Rollercoaster - Keep It Goin'
  66. The Difference - Funny Walker
  67. Red 5 - Lift Me Up
  68. Shanin & Simon - The Rebel
  69. Capella - Be My Baby
  70. Yve feat. Alexia - Vitual Reality
  71. Sequential One - I Wanna Make U...
  72. Discomaniax - Rock The Disco
  73. Sequential One - I Wanna Make U...
  74. Sequential One - Get Down
  75. Toss & Turn - Flexxible
  76. DJ Starmax - Take Me To The Top
  77. Trey D. - Higher & Higher
  78. DJ The Crow - Piece Of Mine
  79. Scooter - Fire (Remix)
  80. Gorgeous - Don't Stop
  81. Members Of Mayday - Sonic Empire
  82. DJ Panda feat. Nadir - True Life
  83. Linda M. - Rhythm Of Love
  84. DJ Sammy feat. Carisma - Prince Of Love
  85. Black Attack - Bang Bang
  86. A.K. Swift - Light In Me
  87. C-Block - Time Is Tikin' Away
  88. Jam & Spoon - Kaleidoscope Skies
  89. Blue Boy - Remember Me
  90. Paul Lowe - We Love To Love
  91. Papa Winnie - World Of Fantasy
  92. Loft - Long John Silver
  93. DJ Bobo - It's My Life
  94. Sunrise - Open Your Eyes
  95. Foxy Brown - I'll Be
  96. 2 Shy - U Give Me All I Need
  97. Michael Jackson - Blood On The Dancefloor
  98. N-Sync - Here We Go
  99. The Boyz - Round & Round
  100. The Docs - Another Bomb
  101. Alternative Experience - All Around The World
  102. Daft Punk - Around The World
  103. Toni Braxton - I Don't Want To
  104. Charlie Dors - Time Goes By
  105. Kenny B. - The Promise You Made
  106. Wang Chung - Dance Hall Days '97
  107. Eternal - Don't You Love Me
  108. Alex Party - Simple Things
  109. DanielArmand - I Want You Back
  110. Regina - Day By Day
  111. 2 Eivissa - Oh La La La
  112. Plastic - The Secret Key Of Life
  113. Bellini - Samba De Janeiro
Cue-Informationen:

FILE "filename CD 01.mp3" MP3 
  TRACK 01 AUDIO 
    INDEX 01 00:00:00 
  TRACK 02 AUDIO  
    INDEX 01 00:33:37 
  TRACK 03 AUDIO  
    INDEX 01 01:54:60 
  TRACK 04 AUDIO  
    INDEX 01 03:29:20 
  TRACK 05 AUDIO  
    INDEX 01 04:35:10 
  TRACK 06 AUDIO  
    INDEX 01 06:33:50 
  TRACK 07 AUDIO  
    INDEX 01 08:14:30 
  TRACK 08 AUDIO  
    INDEX 01 09:53:42 
  TRACK 09 AUDIO 
    INDEX 01 11:55:12 
  TRACK 10 AUDIO 
    INDEX 01 13:46:60 
  TRACK 11 AUDIO 
    INDEX 01 15:12:20 
  TRACK 12 AUDIO 
    INDEX 01 15:53:10 
  TRACK 13 AUDIO 
    INDEX 01 18:02:07 
  TRACK 14 AUDIO  
    INDEX 01 19:00:35 
  TRACK 15 AUDIO  
    INDEX 01 20:36:32 
  TRACK 16 AUDIO  
    INDEX 01 21:59:50 
  TRACK 17 AUDIO  
    INDEX 01 23:47:30 
  TRACK 18 AUDIO  
    INDEX 01 26:14:40 
  TRACK 19 AUDIO  
    INDEX 01 28:06:55 
  TRACK 20 AUDIO 
    INDEX 01 28:47:42 
  TRACK 21 AUDIO 
    INDEX 01 29:54:05 
  TRACK 22 AUDIO  
    INDEX 01 31:15:52 
  TRACK 23 AUDIO 
    INDEX 01 32:21:70 
  TRACK 24 AUDIO 
    INDEX 01 34:03:70 
  TRACK 25 AUDIO  
    INDEX 01 35:27:45 
  TRACK 26 AUDIO 
    INDEX 01 37:28:60 
  TRACK 27 AUDIO 
    INDEX 01 39:41:72 
  TRACK 28 AUDIO 
    INDEX 01 40:58:30 
  TRACK 29 AUDIO 
    INDEX 01 43:05:35 
  TRACK 30 AUDIO 
    INDEX 01 44:50:72 
  TRACK 31 AUDIO 
    INDEX 01 46:24:55 
  TRACK 32 AUDIO  
    INDEX 01 47:21:32 
  TRACK 33 AUDIO  
    INDEX 01 47:49:62 
  TRACK 34 AUDIO 
    INDEX 01 49:07:65 
  TRACK 35 AUDIO 
    INDEX 01 50:25:25 
  TRACK 36 AUDIO 
    INDEX 01 52:52:67 
  TRACK 37 AUDIO 
    INDEX 01 54:26:65 
  TRACK 38 AUDIO  
    INDEX 01 57:14:52 
  TRACK 39 AUDIO 
    INDEX 01 59:40:27 
  TRACK 40 AUDIO 
    INDEX 01 60:50:72 
  TRACK 41 AUDIO 
    INDEX 01 62:29:52 
  TRACK 42 AUDIO 
    INDEX 01 63:58:42 
  TRACK 43 AUDIO  
    INDEX 01 65:26:45 
  TRACK 44 AUDIO 
    INDEX 01 67:30:42 
  TRACK 45 AUDIO 
    INDEX 01 68:56:27 
  TRACK 46 AUDIO
    INDEX 01 70:32:72 
  TRACK 47 AUDIO
    INDEX 01 72:08:57

FILE "filename CD 02.mp3" MP3 
  TRACK 01 AUDIO 
    INDEX 00 00:00:00 
  TRACK 02 AUDIO  
    INDEX 01 02:02:57 
  TRACK 03 AUDIO  
    INDEX 01 02:32:30 
  TRACK 04 AUDIO  
    INDEX 01 03:50:46 
  TRACK 05 AUDIO  
    INDEX 01 05:38:29 
  TRACK 06 AUDIO 
    INDEX 01 06:20:20 
  TRACK 07 AUDIO 
    INDEX 01 08:25:63 
  TRACK 08 AUDIO 
    INDEX 01 10:34:62 
  TRACK 09 AUDIO 
    INDEX 01 11:47:29 
  TRACK 10 AUDIO  
    INDEX 01 13:17:71 
  TRACK 11 AUDIO  
    INDEX 01 14:28:70 
  TRACK 12 AUDIO 
    INDEX 01 16:05:61 
  TRACK 13 AUDIO  
    INDEX 01 17:29:05 
  TRACK 14 AUDIO 
    INDEX 01 18:52:28 
  TRACK 15 AUDIO  
    INDEX 01 20:27:50 
  TRACK 16 AUDIO  
    INDEX 01 22:05:64 
  TRACK 17 AUDIO  
    INDEX 01 23:54:20 
  TRACK 18 AUDIO  
    INDEX 01 25:59:63 
  TRACK 19 AUDIO 
    INDEX 01 27:27:18 
  TRACK 20 AUDIO  
    INDEX 01 28:51:11 
  TRACK 21 AUDIO  
    INDEX 01 30:46:16 
  TRACK 22 AUDIO 
    INDEX 01 32:27:22 
  TRACK 23 AUDIO 
    INDEX 01 34:23:29 
  TRACK 24 AUDIO  
    INDEX 01 35:39:08 
  TRACK 25 AUDIO  
    INDEX 01 37:04:19 
  TRACK 26 AUDIO  
    INDEX 01 38:47:62 
  TRACK 27 AUDIO  
    INDEX 01 40:21:09 
  TRACK 28 AUDIO  
    INDEX 01 40:59:55 
  TRACK 29 AUDIO  
    INDEX 01 41:59:30 
  TRACK 30 AUDIO  
    INDEX 01 43:46:49 
  TRACK 31 AUDIO  
    INDEX 01 45:30:55 
  TRACK 32 AUDIO  
    INDEX 01 46:40:29 
  TRACK 33 AUDIO  
    INDEX 01 47:47:20 
  TRACK 34 AUDIO  
    INDEX 01 49:46:22 
  TRACK 35 AUDIO  
    INDEX 01 50:58:49 
  TRACK 36 AUDIO  
    INDEX 01 52:42:00 
  TRACK 37 AUDIO  
    INDEX 01 55:21:40 
  TRACK 38 AUDIO  
    INDEX 01 56:37:03 
  TRACK 39 AUDIO  
    INDEX 01 57:43:36 
  TRACK 40 AUDIO  
    INDEX 01 59:02:66 
  TRACK 41 AUDIO  
    INDEX 01 60:48:55 
  TRACK 42 AUDIO  
    INDEX 01 62:49:54 
  TRACK 43 AUDIO  
    INDEX 01 65:28:32 
  TRACK 44 AUDIO  
    INDEX 01 67:27:57 
  TRACK 45 AUDIO  
    INDEX 01 69:09:60 
  TRACK 46 AUDIO  
    INDEX 01 70:28:39
Wertung: ()   Hinzugefügt: 21 January 2009
Bewerte als Erster diesen Mix:
Mixsuche
Suchbegriff
Genauer Wortlaut
Alle Worte (UND)
Ein Wort (ODER)
SPONSOREN