Mixkatalog
 Einloggen
Login
Passwort

Power Station Mix 4 Hits: 4  

Power Station Mix 4


Kurzbeschreibung:
Radio Veronica präsentiert Power Station Mix Volume 4.
 
Crew/DJ: Radio Veronica Reihe: Power Station
Stil: Pop Erscheinungsjahr: 1996
Anzahl Tonträger: 1 Spielzeit: 72:12
Trackliste:
    Veronica Dancemix:
  1. Corona - I Don't Wanna Be A Star
  2. Candy Girls - Fee Fa Fo Fum
  3. Q-Club - Rofo's Theme '95
  4. Captain Jack - DTO
  5. Magic Affair - Power Of Light
  6. D-Phase - Tell Me Why
  7. Culture Beat - Get It Right
  8. A.D.A.M. feat. Amy - Memories & Dreams
  9. Fairy Tale - Time
  10. Cool Cut - Gangstar's Paradise
  11. Music Instructor - Hands In The Air
  12. General Base - Thank You
  13. Activate - Tell Me
    Bonustrack:
  14. Fun Factory - Do Wah Diddy (The Houseblowdown)
  15. Lucia P. - Electric Live (Drums Please Mix)
    DJ Bobo Monstermix:
  16. DJ Bobo - There's A Party
  17. DJ Bobo - Can You See The Light
  18. DJ Bobo - Love Is All Around
  19. DJ Bobo - Keep On Dancing
  20. DJ Bobo - Take Control
  21. DJ Bobo - Somebody Dance With Me
    Bonustrack:
  22. Twenty 4 Seven - I Can't Stand It ('96 Re Touch)
  23. Mandingo - This Is A Feelin' (Feeling Like A Sampler Mix)
Cue-Informationen:

FILE "filename.mp3" MP3
  TRACK 01 AUDIO
    INDEX 01 00:00:00
  TRACK 02 AUDIO
    INDEX 01 22:52:12
  TRACK 03 AUDIO
    INDEX 01 28:52:70
  TRACK 04 AUDIO
    INDEX 01 38:14:32
  TRACK 05 AUDIO
    INDEX 01 54:18:55
  TRACK 06 AUDIO
    INDEX 01 63:45:12
Wertung: ()   Hinzugefügt: 18 August 2010
Bewerte als Erster diesen Mix:
Mixsuche
Suchbegriff
Genauer Wortlaut
Alle Worte (UND)
Ein Wort (ODER)
SPONSOREN