Mixkatalog
 Einloggen
Login
Passwort

The New Dance X-Plosion 7 Hits: 1864  

The New Dance X-Plosion 7


Kurzbeschreibung:
Diablo präsentiert The New Dance X-Plosion Volume 7. Gemixt von DJ Luckyloop & DJ AM.
 
Crew/DJ: Diablo Reihe: Dance X-Plosion
Stil: Dance Erscheinungsjahr: 2005
CDs: 1 Spielzeit: 71:36
Trackliste:
Cue-Informationen:

FILE "filename.mp3" MP3
  TRACK 01 AUDIO
    INDEX 01 00:00:00
  TRACK 02 AUDIO
    INDEX 01 02:54:00
  TRACK 03 AUDIO
    INDEX 01 16:32:60
  TRACK 04 AUDIO
    INDEX 01 26:58:63
  TRACK 05 AUDIO
    INDEX 01 30:09:24
  TRACK 06 AUDIO
    INDEX 01 55:03:19
  TRACK 07 AUDIO
    INDEX 01 68:13:32
Wertung: (19)  
Hinzugefügt: 13 August 2010
RSS Feed
RSS Feed
Sprache
Deutsch Englisch Französisch
Mixsuche
Suchbegriff
Genauer Wortlaut
Alle Worte (UND)
Ein Wort (ODER)
Statistik
29581 Mixe eingetragen
28170 Tracklisten
Newsletter
E-Mail
Anmelden
Abmelden
SPONSOREN