Mixkatalog
 Einloggen
Login
Passwort

Housemeister 15 Hits: 6  

Housemeister 15


Kurzbeschreibung:
ASS Records präsentiert den Studio 33 Housemeister Volume 15 - Taste The Bass...Live & Handmade.
 
Crew/DJ: Studio 33 Reihe: Housemeister
Stil: House Erscheinungsjahr: 2002
Anzahl Tonträger: 1 Spielzeit: 77:06
Trackliste:
  1. Intro
  2. Breakdown
  3. Gareth Gates - Unchained Melody
  4. Senior x - Tainted Love
  5. South Park - Titanic
  6. Symphonics - Bolero
  7. DJ T-Kay - Hand In Hand
  8. Two Deejays - Over The Rainbow
  9. Scooter - Nessaja
  10. Orion Too feat. Caitlin - Hope & Wait
  11. DJ Flying Dutchman - Everlasting Love
  12. O.C. Project - Close Your Eyes 2002
  13. DJ Valium - Bring The Beat Back
  14. DJ Ekiss & Sr. Pely - Passion
  15. The Room - Everybody & Every Girl
  16. Dreamgate - Now We Are Free
  17. Ascemsion - For A Livetime
  18. Neo-Cortex - Elements
  19. Pulsedriver - I Dominate You
  20. Jan Wayne - Because The Night
  21. Beat Box - You Love Me
  22. Awex - Adrenaline
  23. Rocko & Dee Jay Neo - Everybody (Club Mix)
  24. DJ Kim - Jetlag
    Aquagen Mini Mix:
  25. Aquagen - Weekender Special
  26. Aquagen - Saturn 8
  27. Aquagen - Paranoix
  28. Aquagen - Take The Chance
  29. Aquagen - Every Day
Cue-Informationen:

FILE "filename.mp3" MP3
  TRACK 01 AUDIO
    INDEX 01 00:00:00
  TRACK 02 AUDIO
    INDEX 01 00:14:70
  TRACK 03 AUDIO
    INDEX 01 00:25:45
  TRACK 04 AUDIO
    INDEX 01 02:41:27
  TRACK 05 AUDIO
    INDEX 01 06:05:53
  TRACK 06 AUDIO
    INDEX 01 08:03:22
  TRACK 07 AUDIO
    INDEX 01 12:10:00
  TRACK 08 AUDIO
    INDEX 01 15:28:70
  TRACK 09 AUDIO
    INDEX 01 18:24:33
  TRACK 10 AUDIO
    INDEX 01 21:43:48
  TRACK 11 AUDIO
    INDEX 01 23:59:09
  TRACK 12 AUDIO
    INDEX 01 26:10:34
  TRACK 13 AUDIO
    INDEX 01 27:59:04
  TRACK 14 AUDIO
    INDEX 01 30:39:56
  TRACK 15 AUDIO
    INDEX 01 32:44:15
  TRACK 16 AUDIO
    INDEX 01 35:35:69
  TRACK 17 AUDIO
    INDEX 01 38:19:74
  TRACK 18 AUDIO
    INDEX 01 41:25:29
  TRACK 19 AUDIO
    INDEX 01 45:00:67
  TRACK 20 AUDIO
    INDEX 01 47:08:20
  TRACK 21 AUDIO
    INDEX 01 51:08:40
  TRACK 22 AUDIO
    INDEX 01 55:11:14
  TRACK 23 AUDIO
    INDEX 01 58:53:20
  TRACK 24 AUDIO
    INDEX 01 61:12:49
  TRACK 25 AUDIO
    INDEX 01 61:32:64
  TRACK 26 AUDIO
    INDEX 01 61:57:20
  TRACK 27 AUDIO
    INDEX 01 65:08:73
  TRACK 28 AUDIO
    INDEX 01 69:47:19
  TRACK 29 AUDIO
    INDEX 01 73:32:42
  TRACK 30 AUDIO
    INDEX 01 76:50:33
  TRACK 31 AUDIO
    INDEX 01 77:01:22
Wertung: (1)  
Hinzugefügt: 6 August 2010
RSS Feed
RSS Feed
Sprache
Deutsch Englisch Französisch
Mixsuche
Suchbegriff
Genauer Wortlaut
Alle Worte (UND)
Ein Wort (ODER)
Statistik
14711 Mixe eingetragen
14399 Tracklisten
Newsletter
E-Mail
Anmelden
Abmelden
SPONSOREN