Mixkatalog
 Einloggen
Login
Passwort

Housemeister 14 Hits: 1  

Housemeister 14


Kurzbeschreibung:
ASS Records präsentiert den Studio 33 Housemeister Volume 14 - Meet You At The Club... Gemixt von DJ Steel & DJ O.
 
Crew/DJ: Studio 33 Reihe: Housemeister
Stil: House Erscheinungsjahr: 2001
Anzahl Tonträger: 1 Spielzeit: 77:56
Trackliste:
  1. Intro
  2. Dominator - Lord Of The Rings
  3. Sven-R-G - Going Crazy
  4. DJ Sammy - Heaven
  5. Riva feat. Danii Minogue - Who Do You Love Now
  6. U-Go Boss - One Way
  7. Kosheen - Catch
  8. Insex - Alane
  9. Safri Duo - Baya-Baya
  10. 4 Strings - Into The Night
  11. Blank & Jones - Desire
  12. Markos - Temptation
  13. Lange feat. Skye - Drifting Away
  14. Armin van Buuren pres. Rising Star - Clear Blue Moon
  15. Goldtrix pres. Andrea Brown - It's Love (Trippin')
  16. Cosmic Gate - Back To Earth
  17. Voodoo & Serano - When I Rock
  18. Clubspeakers - Have You Ever
  19. Nightlife - Pro Aggressive
  20. DJs @ Work - Time To Wonder
  21. Svenson & Gielen - Twisted
  22. JT Company - Wake Me Tonight
  23. Aquagen - Hard To Say I'm Sorry
  24. Beatbox - Right Here, Right Now
  25. Scooter - Ramp! The Logical Song
  26. 4 Clubbers - Children
  27. DJ Sakin & Friends - Little Paradies
  28. MicroV - Godd
  29. Nexus - Next
  30. Ravers On Dope - Hardcore Vibes
  31. Yves Deruyter - Music Non Stop
  32. Childhood - Where My Love Is
  33. Funky Divas - Nessajy
  34. Starsplash - Free
Cue-Informationen:

FILE "filename.mp3" MP3 
  TRACK 01 AUDIO 
    INDEX 01 00:00:00 
  TRACK 02 AUDIO 
    INDEX 01 00:54:20 
  TRACK 03 AUDIO 
    INDEX 01 02:58:67 
  TRACK 04 AUDIO 
    INDEX 01 04:34:60 
  TRACK 05 AUDIO 
    INDEX 01 07:10:44 
  TRACK 06 AUDIO 
    INDEX 01 10:08:55 
  TRACK 07 AUDIO 
    INDEX 01 13:20:49 
  TRACK 08 AUDIO 
    INDEX 01 15:44:47 
  TRACK 09 AUDIO 
    INDEX 01 18:47:74 
  TRACK 10 AUDIO 
    INDEX 01 21:41:13 
  TRACK 11 AUDIO 
    INDEX 01 24:39:39 
  TRACK 12 AUDIO 
    INDEX 01 27:10:45 
  TRACK 13 AUDIO 
    INDEX 01 29:15:66 
  TRACK 14 AUDIO 
    INDEX 01 32:14:25 
  TRACK 15 AUDIO 
    INDEX 01 35:23:04 
  TRACK 16 AUDIO 
    INDEX 01 39:09:29 
  TRACK 17 AUDIO 
    INDEX 01 41:26:41 
  TRACK 18 AUDIO 
    INDEX 01 44:19:54 
  TRACK 19 AUDIO 
    INDEX 01 46:23:20 
  TRACK 20 AUDIO 
    INDEX 01 48:54:13 
  TRACK 21 AUDIO 
    INDEX 01 51:38:61 
  TRACK 22 AUDIO 
    INDEX 01 54:16:23 
  TRACK 23 AUDIO 
    INDEX 01 55:59:40 
  TRACK 24 AUDIO 
    INDEX 01 57:56:53 
  TRACK 25 AUDIO 
    INDEX 01 59:43:74 
  TRACK 26 AUDIO 
    INDEX 01 60:46:25 
  TRACK 27 AUDIO 
    INDEX 01 62:32:49 
  TRACK 28 AUDIO 
    INDEX 01 64:34:31 
  TRACK 29 AUDIO 
    INDEX 01 66:51:43 
  TRACK 30 AUDIO 
    INDEX 01 69:17:18 
  TRACK 31 AUDIO 
    INDEX 01 70:12:17 
  TRACK 32 AUDIO 
    INDEX 01 72:42:67 
  TRACK 33 AUDIO 
    INDEX 01 75:09:00 
  TRACK 34 AUDIO 
    INDEX 01 77:05:14
Wertung: (1)  
Hinzugefügt: 6 August 2010
RSS Feed
RSS Feed
Sprache
Deutsch Englisch Französisch
Mixsuche
Suchbegriff
Genauer Wortlaut
Alle Worte (UND)
Ein Wort (ODER)
Statistik
14711 Mixe eingetragen
14399 Tracklisten
Newsletter
E-Mail
Anmelden
Abmelden
SPONSOREN