Mixkatalog
 Einloggen
Login
Passwort

Housemeister 12 Hits: 4  

Housemeister 12


Kurzbeschreibung:
ASS Records präsentiert den Studio 33 Housemeister Volume 12 - Go On The Danceground...! Gemixt von DJ Steel & DJ O.
 
Crew/DJ: Studio 33 Reihe: Housemeister
Stil: House Erscheinungsjahr: 2001
Anzahl Tonträger: 1 Spielzeit: 74:22
Trackliste:
  1. Intro
  2. Vicious - Pfeifenalarm
  3. Konovox - Blitz
  4. 2 Black 4 U - Storm Weather
  5. Space Brothers - Everywhere I Go
  6. Pietro In Da House - Big Muscles
  7. Claudio Manzoni - You Got It
  8. Scooter - Devil Drums
  9. Ravers Nature - Would She B
  10. Dee Dee - Forever
  11. Lasgo - Something
  12. Saturn - Miami 2001
  13. Headquarter - Successfull Entertainment
  14. LSG Project feat. Daisy Dee - Are You Ready
  15. 666 - Supadupafly
  16. Voodoo & Serano - Slide To The Vibe
  17. Cosmic Gate - Fire Wire
  18. C90 - Miracle Maker
  19. DJ Sakin & Friends - Miami 2001
  20. Mario Piu - The Vision
  21. Terence - Maniac 2001
  22. Kyau vs. Albert - Outside
  23. Kai Tracid - Too Many Times
  24. DJ Jean - Lift Me Up
  25. Bass King - SLC
  26. De Vegas - The Train
  27. DJ Segrenza - Time Command
  28. Infernal - Muzaik
  29. Frisbe - Mysterie
  30. Barcode Brothers - Flute
  31. Schwarze Puppen - Schwarze Puppen
  32. Clubstars - This Sound
  33. Black Spide - Save Your Life
  34. DJ Quicksilver meets Shaggy - Bombastic 2001
  35. The Sync - Forbidden Rules
  36. Cheero Key - I'm A Rauer Baby
  37. KS Project - Rock That Party
  38. Awex - It's Our Future (2001 Remix)
  39. Carolina Marquez - Ritmo
  40. SMS feat. Rehban - La Vie C'Est Fantastic
  41. Vanni G. - Heuenu Shalom
  42. Jark Prongo - Rocket Base
Cue-Informationen:

FILE "filename.mp3" MP3
  TRACK 01 AUDIO
    INDEX 01 00:00:00
  TRACK 02 AUDIO
    INDEX 01 00:32:48
  TRACK 03 AUDIO
    INDEX 01 01:43:67
  TRACK 04 AUDIO
    INDEX 01 03:18:70
  TRACK 05 AUDIO
    INDEX 01 05:40:67
  TRACK 06 AUDIO
    INDEX 01 07:03:21
  TRACK 07 AUDIO
    INDEX 01 08:45:18
  TRACK 08 AUDIO
    INDEX 01 10:27:15
  TRACK 09 AUDIO
    INDEX 01 11:55:49
  TRACK 10 AUDIO
    INDEX 01 13:30:66
  TRACK 11 AUDIO
    INDEX 01 15:19:41
  TRACK 12 AUDIO
    INDEX 01 17:15:10
  TRACK 13 AUDIO
    INDEX 01 18:51:45
  TRACK 14 AUDIO
    INDEX 01 20:58:40
  TRACK 15 AUDIO
    INDEX 01 23:33:12
  TRACK 16 AUDIO
    INDEX 01 25:38:03
  TRACK 17 AUDIO
    INDEX 01 27:10:47
  TRACK 18 AUDIO
    INDEX 01 28:31:51
  TRACK 19 AUDIO
    INDEX 01 30:16:02
  TRACK 20 AUDIO
    INDEX 01 31:53:02
  TRACK 21 AUDIO
    INDEX 01 33:28:69
  TRACK 22 AUDIO
    INDEX 01 35:20:67
  TRACK 23 AUDIO
    INDEX 01 36:56:06
  TRACK 24 AUDIO
    INDEX 01 38:31:19
  TRACK 25 AUDIO
    INDEX 01 40:49:22
  TRACK 26 AUDIO
    INDEX 01 43:32:66
  TRACK 27 AUDIO
    INDEX 01 45:21:18
  TRACK 28 AUDIO
    INDEX 01 47:23:40
  TRACK 29 AUDIO
    INDEX 01 48:45:35
  TRACK 30 AUDIO
    INDEX 01 50:07:03
  TRACK 31 AUDIO
    INDEX 01 51:45:45
  TRACK 32 AUDIO
    INDEX 01 53:24:08
  TRACK 33 AUDIO
    INDEX 01 55:41:59
  TRACK 34 AUDIO
    INDEX 01 57:35:72
  TRACK 35 AUDIO
    INDEX 01 60:22:60
  TRACK 36 AUDIO
    INDEX 01 61:44:30
  TRACK 37 AUDIO
    INDEX 01 63:31:67
  TRACK 38 AUDIO
    INDEX 01 64:34:40
  TRACK 39 AUDIO
    INDEX 01 66:58:12
  TRACK 40 AUDIO
    INDEX 01 69:03:68
  TRACK 41 AUDIO
    INDEX 01 71:12:72
  TRACK 42 AUDIO
    INDEX 01 72:49:61
Wertung: (1)  
Hinzugefügt: 6 August 2010
RSS Feed
RSS Feed
Sprache
Deutsch Englisch Französisch
Mixsuche
Suchbegriff
Genauer Wortlaut
Alle Worte (UND)
Ein Wort (ODER)
Statistik
14711 Mixe eingetragen
14399 Tracklisten
Newsletter
E-Mail
Anmelden
Abmelden
SPONSOREN