Mixkatalog
 Einloggen
Login
Passwort

Number One 18 Hits: 1448  

Number One 18


Kurzbeschreibung:
DJ AM präsentiert No. One Volume 18.
 
Crew/DJ: DJ AM Reihe: Number One
Stil: Dance Erscheinungsjahr: 2006
CDs: 1 Spielzeit: 64:31
Trackliste:
Cue-Informationen:

FILE "filename.mp3" MP3
  TRACK 01 AUDIO
    INDEX 01 00:00:00
  TRACK 02 AUDIO
    INDEX 01 03:34:43
  TRACK 03 AUDIO
    INDEX 01 29:39:41
  TRACK 04 AUDIO
    INDEX 01 30:02:51
  TRACK 05 AUDIO
    INDEX 01 41:02:16
  TRACK 06 AUDIO
    INDEX 01 42:03:35
Wertung: (3)  
Hinzugefügt: 4 August 2010
RSS Feed
RSS Feed
Sprache
Deutsch Englisch Französisch
Mixsuche
Suchbegriff
Genauer Wortlaut
Alle Worte (UND)
Ein Wort (ODER)
Statistik
29841 Mixe eingetragen
28217 Tracklisten
Newsletter
E-Mail
Anmelden
Abmelden
SPONSOREN