Mixkatalog
 Einloggen
Login
Passwort

Party Mix 03 Hits: 30  

Party Mix 03


Kurzbeschreibung:
Deep präsentiert Party Mix Volume 3. Der Mix entspricht dem Crashinator Party Episode Part 9.
 
Crew/DJ: Deep Reihe: Deep Party
Stil: Party Erscheinungsjahr: 2003
CDs: 1 Spielzeit: 79:32
Trackliste:
Cue-Informationen:

FILE "filename.mp3" MP3
  TRACK 01 AUDIO
    INDEX 01 00:00:00
  TRACK 02 AUDIO
    INDEX 01 00:39:60
  TRACK 03 AUDIO
    INDEX 01 03:51:23
  TRACK 04 AUDIO
    INDEX 01 07:10:07
  TRACK 05 AUDIO
    INDEX 01 09:56:32
  TRACK 06 AUDIO
    INDEX 01 12:53:55
  TRACK 07 AUDIO
    INDEX 01 16:27:25
  TRACK 08 AUDIO
    INDEX 01 19:44:62
  TRACK 09 AUDIO
    INDEX 01 23:22:15
  TRACK 10 AUDIO
    INDEX 01 26:53:24
  TRACK 11 AUDIO
    INDEX 01 29:11:07
  TRACK 12 AUDIO
    INDEX 01 33:26:34
  TRACK 13 AUDIO
    INDEX 01 36:30:35
  TRACK 14 AUDIO
    INDEX 01 40:56:12
  TRACK 15 AUDIO
    INDEX 01 44:30:12
  TRACK 16 AUDIO
    INDEX 01 48:18:53
  TRACK 17 AUDIO
    INDEX 01 52:45:39
  TRACK 18 AUDIO
    INDEX 01 54:50:58
  TRACK 19 AUDIO
    INDEX 01 58:24:60
  TRACK 20 AUDIO
    INDEX 01 62:29:45
  TRACK 21 AUDIO
    INDEX 01 68:53:63
  TRACK 22 AUDIO
    INDEX 01 73:24:32
  TRACK 23 AUDIO
    INDEX 01 76:04:47
Wertung: (3)  
Hinzugefügt: 7 May 2010
RSS Feed
RSS Feed
Sprache
Deutsch Englisch Französisch
Mixsuche
Suchbegriff
Genauer Wortlaut
Alle Worte (UND)
Ein Wort (ODER)
Statistik
34690 Mixe eingetragen
32811 Tracklisten
Newsletter
E-Mail
Anmelden
Abmelden
SPONSOREN