Mixkatalog
 Einloggen
Login
Passwort

The 005th Story Hits: 3  

The 005th Story


Kurzbeschreibung:
Studio 33 präsentiert Mission Impossible, The 5th Story.
 
Crew/DJ: Studio 33 Reihe: Story
Stil: Dance Erscheinungsjahr: 1996
Anzahl Tonträger: 1 Spielzeit: 74:22
Trackliste:
    Dance Mission:
  1. Intro
  2. Sarah - Loving You
  3. Zhi-Vago - Dreamer
  4. T.H. Express - Love 4 Liberty
  5. Alexia - The Summer Is Crazy
  6. Kikka - Could It Be Love
  7. U96 - A Night To Remember
  8. Mr. President - I Give You My Heart
  9. Radiorama - Like An Angel
  10. Robin - Juliet
  11. Imperio - Atlantis
    House Mission:
  12. Intro
  13. No Mercy - Where Do You Go?
  14. Umboza - Sunshine
  15. Regina - Killing Me Softly
  16. Candy Club - Let The Love Go On
  17. Garcia - Vamonos
  18. Los Del Rio - Maria
  19. Livin Joy - Don't Stop Movin'
  20. Bizz Nizz - Dabadabiaboo
  21. Red 5 - Da Beat Goes
  22. B.B.E. - Emmanuel Top
  23. Sonic Surfer - Dance To The House
  24. Farmhouse - No Control
    Groove Mission:
  25. Fugees - Ready Or Not
  26. Ex-It - Body Talk
  27. Ron 'N' Raz - Take A Ride
  28. Sir Prize - Sing Along
  29. Flip Da Scrip - You To Me
  30. Eddy N. - Just Be Good To Me
  31. Robin Cook - I Won't Let The Sun Go Down
  32. Heath Hunter - Revolution In Paradise
  33. Masterboy - Mister Feeling
  34. Beat System - Reggae Night
Cue-Informationen:

FILE "filename.mp3" MP3
  TRACK 01 AUDIO
    INDEX 01 00:00:00
  TRACK 02 AUDIO
    INDEX 01 00:43:32
  TRACK 03 AUDIO
    INDEX 01 02:42:42
  TRACK 04 AUDIO
    INDEX 01 05:02:42
  TRACK 05 AUDIO
    INDEX 01 07:22:42
  TRACK 06 AUDIO
    INDEX 01 10:01:52
  TRACK 07 AUDIO
    INDEX 01 12:18:40
  TRACK 08 AUDIO
    INDEX 01 15:27:72
  TRACK 09 AUDIO
    INDEX 01 17:54:15
  TRACK 10 AUDIO
    INDEX 01 20:19:15
  TRACK 11 AUDIO
    INDEX 01 23:12:70
  TRACK 12 AUDIO
    INDEX 01 25:58:52
  TRACK 13 AUDIO
    INDEX 01 26:30:10
  TRACK 14 AUDIO
    INDEX 01 29:10:60
  TRACK 15 AUDIO
    INDEX 01 31:23:40
  TRACK 16 AUDIO
    INDEX 01 33:24:52
  TRACK 17 AUDIO
    INDEX 01 35:50:60
  TRACK 18 AUDIO
    INDEX 01 37:55:50
  TRACK 19 AUDIO
    INDEX 01 39:57:07
  TRACK 20 AUDIO
    INDEX 01 41:08:72
  TRACK 21 AUDIO
    INDEX 01 43:02:62
  TRACK 22 AUDIO
    INDEX 01 44:34:07
  TRACK 23 AUDIO
    INDEX 01 45:58:12
  TRACK 24 AUDIO
    INDEX 01 48:02:55
  TRACK 25 AUDIO
    INDEX 00 50:46:25
    INDEX 01 50:47:10
  TRACK 26 AUDIO
    INDEX 01 53:55:12
  TRACK 27 AUDIO
    INDEX 01 56:03:52
  TRACK 28 AUDIO
    INDEX 01 58:12:07
  TRACK 29 AUDIO
    INDEX 01 60:34:55
  TRACK 30 AUDIO
    INDEX 01 62:37:42
  TRACK 31 AUDIO
    INDEX 01 65:22:52
  TRACK 32 AUDIO
    INDEX 01 67:25:37
  TRACK 33 AUDIO
    INDEX 01 69:41:20
  TRACK 34 AUDIO
    INDEX 01 72:25:27
Wertung: ()   Hinzugefügt: 21 January 2009
Bewerte als Erster diesen Mix:
Mixsuche
Suchbegriff
Genauer Wortlaut
Alle Worte (UND)
Ein Wort (ODER)
SPONSOREN