Mixkatalog
 Einloggen
Login
Passwort

House Katze 19 Hits: 518  

House Katze 19


Kurzbeschreibung:
Blue Magic präsentiert House Katze Volume 19. Best House Mix in Town.
 
Crew/DJ: Blue Magic Reihe: House Katze
Stil: House Erscheinungsjahr: 2002
CDs: 1 Spielzeit: 73:04
Trackliste:
Cue-Informationen:

FILE "filename.mp3" MP3
  TRACK 01 Audio 
    INDEX 01 00:00:00 
  TRACK 02 Audio 
    INDEX 01 00:50:20 
  TRACK 03 Audio 
    INDEX 01 03:24:19 
  TRACK 04 Audio 
    INDEX 01 06:11:53 
  TRACK 05 Audio 
    INDEX 01 07:13:17 
  TRACK 06 Audio 
    INDEX 01 11:32:66 
  TRACK 07 Audio 
    INDEX 01 14:16:64 
  TRACK 08 Audio 
    INDEX 01 17:29:64 
  TRACK 09 Audio 
    INDEX 01 20:41:14 
  TRACK 10 Audio 
    INDEX 01 23:45:47 
  TRACK 11 Audio 
    INDEX 01 26:48:28 
  TRACK 12 Audio 
    INDEX 01 28:51:26 
  TRACK 13 Audio 
    INDEX 01 33:28:06 
  TRACK 14 Audio 
    INDEX 01 37:28:66 
  TRACK 15 Audio 
    INDEX 01 41:21:16 
  TRACK 16 Audio 
    INDEX 01 43:10:46 
  TRACK 17 Audio 
    INDEX 01 44:59:73 
  TRACK 18 Audio 
    INDEX 01 45:40:72 
  TRACK 19 Audio 
    INDEX 01 47:57:45 
  TRACK 20 Audio 
    INDEX 01 50:00:33 
  TRACK 21 Audio 
    INDEX 01 53:08:02 
  TRACK 22 Audio 
    INDEX 01 56:00:16 
  TRACK 23 Audio 
    INDEX 01 59:16:20 
  TRACK 24 Audio 
    INDEX 01 61:59:61 
  TRACK 25 Audio 
    INDEX 01 65:41:25 
  TRACK 26 Audio 
    INDEX 01 67:50:54
Wertung: (1)  
Hinzugefügt: 5 May 2010
RSS Feed
RSS Feed
Sprache
Deutsch Englisch Französisch
Mixsuche
Suchbegriff
Genauer Wortlaut
Alle Worte (UND)
Ein Wort (ODER)
Statistik
29838 Mixe eingetragen
28214 Tracklisten
Newsletter
E-Mail
Anmelden
Abmelden
SPONSOREN