Mixkatalog
 Einloggen
Login
Passwort

The 090th Story Hits: 9  

The 090th Story


Kurzbeschreibung:
Frosty The Mixman... Studio 33 The 90th Story.
 
Crew/DJ: Studio 33 Reihe: Story
Stil: Dance Erscheinungsjahr: 2007
Anzahl Tonträger: 1 Spielzeit: 79:56
Trackliste:
Cue-Informationen:

FILE "filename.mp3" MP3
  TRACK 01 AUDIO
    INDEX 01 00:00:00
  TRACK 02 AUDIO
    INDEX 01 00:55:13
  TRACK 03 AUDIO
    INDEX 01 02:03:00
  TRACK 04 AUDIO
    INDEX 01 02:58:49
  TRACK 05 AUDIO
    INDEX 01 03:47:26
  TRACK 06 AUDIO
    INDEX 01 04:08:14
  TRACK 07 AUDIO
    INDEX 01 04:51:27
  TRACK 08 AUDIO
    INDEX 01 05:59:74
  TRACK 09 AUDIO
    INDEX 01 06:56:32
  TRACK 10 AUDIO
    INDEX 01 08:12:02
  TRACK 11 AUDIO
    INDEX 01 09:27:11
  TRACK 12 AUDIO
    INDEX 01 10:01:68
  TRACK 13 AUDIO
    INDEX 01 10:55:71
  TRACK 14 AUDIO
    INDEX 01 12:04:52
  TRACK 15 AUDIO
    INDEX 01 13:14:42
  TRACK 16 AUDIO
    INDEX 01 14:31:03
  TRACK 17 AUDIO
    INDEX 01 15:12:15
  TRACK 18 AUDIO
    INDEX 01 16:46:63
  TRACK 19 AUDIO
    INDEX 01 17:40:06
  TRACK 20 AUDIO
    INDEX 01 18:34:29
  TRACK 21 AUDIO
    INDEX 01 19:57:62
  TRACK 22 AUDIO
    INDEX 01 20:40:06
  TRACK 23 AUDIO
    INDEX 01 22:28:19
  TRACK 24 AUDIO
    INDEX 01 24:17:74
  TRACK 25 AUDIO
    INDEX 01 24:59:03
  TRACK 26 AUDIO
    INDEX 01 25:32:47
  TRACK 27 AUDIO
    INDEX 01 27:31:59
  TRACK 28 AUDIO
    INDEX 01 28:45:36
  TRACK 29 AUDIO
    INDEX 01 29:34:53
  TRACK 30 AUDIO
    INDEX 01 31:18:37
  TRACK 31 AUDIO
    INDEX 01 32:26:11
  TRACK 32 AUDIO
    INDEX 01 32:41:48
  TRACK 33 AUDIO
    INDEX 01 33:55:08
  TRACK 34 AUDIO
    INDEX 01 35:06:27
  TRACK 35 AUDIO
    INDEX 01 35:30:25
  TRACK 36 AUDIO
    INDEX 01 36:20:42
  TRACK 37 AUDIO
    INDEX 01 37:37:61
  TRACK 38 AUDIO
    INDEX 01 38:41:04
  TRACK 39 AUDIO
    INDEX 01 39:37:19
  TRACK 40 AUDIO
    INDEX 01 40:38:39
  TRACK 41 AUDIO
    INDEX 01 41:39:12
  TRACK 42 AUDIO
    INDEX 01 42:33:53
  TRACK 43 AUDIO
    INDEX 01 43:14:10
  TRACK 44 AUDIO
    INDEX 01 44:20:52
  TRACK 45 AUDIO
    INDEX 01 45:33:45
  TRACK 46 AUDIO
    INDEX 01 46:29:12
  TRACK 47 AUDIO
    INDEX 01 47:22:37
  TRACK 48 AUDIO
    INDEX 01 48:25:57
  TRACK 49 AUDIO
    INDEX 01 50:00:04
  TRACK 50 AUDIO
    INDEX 01 50:33:74
  TRACK 51 AUDIO
    INDEX 01 51:47:25
  TRACK 52 AUDIO
    INDEX 01 53:54:50
  TRACK 53 AUDIO
    INDEX 01 54:49:10
  TRACK 54 AUDIO
    INDEX 01 56:09:60
  TRACK 55 AUDIO
    INDEX 01 57:05:62
  TRACK 56 AUDIO
    INDEX 01 58:36:11
  TRACK 57 AUDIO
    INDEX 01 59:59:72
  TRACK 58 AUDIO
    INDEX 01 61:00:67
  TRACK 59 AUDIO
    INDEX 01 62:22:48
  TRACK 60 AUDIO
    INDEX 01 63:08:27
  TRACK 61 AUDIO
    INDEX 01 63:53:27
  TRACK 62 AUDIO
    INDEX 01 65:24:59
  TRACK 63 AUDIO
    INDEX 01 66:27:73
  TRACK 64 AUDIO
    INDEX 01 67:28:40
  TRACK 65 AUDIO
    INDEX 01 68:58:50
  TRACK 66 AUDIO
    INDEX 01 70:57:53
  TRACK 67 AUDIO
    INDEX 01 72:13:66
  TRACK 68 AUDIO
    INDEX 01 73:40:04
  TRACK 69 AUDIO
    INDEX 01 75:25:22
  TRACK 70 AUDIO
    INDEX 01 76:08:72
  TRACK 71 AUDIO
    INDEX 01 78:11:21
Wertung: ()  
Hinzugefügt: 27 February 2009
Bewerte als Erster diesen Mix:
RSS Feed
RSS Feed
Sprache
Deutsch Englisch Französisch
Mixsuche
Suchbegriff
Genauer Wortlaut
Alle Worte (UND)
Ein Wort (ODER)
Statistik
12793 Mixe eingetragen
12535 Tracklisten
Newsletter
E-Mail
Anmelden
Abmelden
SPONSOREN