Mixkatalog
 Einloggen
Login
Passwort

The New Dance X-Plosion 5½ Hits: 722  

The New Dance X-Plosion 5½


Kurzbeschreibung:
Diablo präsentiert The New Dance X-Plosion Volume 5.5. Best Mix in Town mit DJ Masterfaker vs. DJ Luckyloop - The Century Mix.
 
Crew/DJ: Diablo Reihe: Dance X-Plosion
Stil: Dance Erscheinungsjahr: 2002
CDs: 1 Spielzeit: 71:30
Trackliste:
Cue-Informationen:

FILE "filename.mp3" MP3 
  TRACK 01 AUDIO 
    INDEX 01 00:00:00 
  TRACK 02 AUDIO 
    INDEX 01 01:21:26 
  TRACK 03 AUDIO 
    INDEX 01 39:01:55 
  TRACK 04 AUDIO 
    INDEX 01 39:47:04
Wertung: (21)  
Hinzugefügt: 21 April 2010
RSS Feed
RSS Feed
Sprache
Deutsch Englisch Französisch
Mixsuche
Suchbegriff
Genauer Wortlaut
Alle Worte (UND)
Ein Wort (ODER)
Statistik
29838 Mixe eingetragen
28214 Tracklisten
Newsletter
E-Mail
Anmelden
Abmelden
SPONSOREN