Mixkatalog
 Einloggen
Login
Passwort

Pop Mix Hits: 626  

Pop Mix


Kurzbeschreibung:
Ben Liebrand präsentiert Pop Mix, auch unter dem Titel "All Time Greatest Pop Mix" erschienen.
 
Crew/DJ: Ben Liebrand Reihe: Sonstige
Stil: Pop Erscheinungsjahr: 2000
CDs: 1 Spielzeit: 67:47
Trackliste:
Cue-Informationen:

FILE "filename.mp3" MP3
  TRACK 01 AUDIO
    INDEX 01 00:00:00
  TRACK 02 AUDIO
    INDEX 01 00:37:54
  TRACK 03 AUDIO
    INDEX 01 02:41:71
  TRACK 04 AUDIO
    INDEX 01 04:37:50
  TRACK 05 AUDIO
    INDEX 01 06:17:13
  TRACK 06 AUDIO
    INDEX 01 07:53:63
  TRACK 07 AUDIO
    INDEX 01 09:35:21
  TRACK 08 AUDIO
    INDEX 01 11:19:70
  TRACK 09 AUDIO
    INDEX 01 13:31:06
  TRACK 10 AUDIO
    INDEX 01 15:08:21
  TRACK 11 AUDIO
    INDEX 01 16:48:44
  TRACK 12 AUDIO
    INDEX 01 18:30:46
  TRACK 13 AUDIO
    INDEX 01 20:30:07
  TRACK 14 AUDIO
    INDEX 01 22:40:04
  TRACK 15 AUDIO
    INDEX 01 24:02:04
  TRACK 16 AUDIO
    INDEX 01 26:08:71
  TRACK 17 AUDIO
    INDEX 01 28:01:09
  TRACK 18 AUDIO
    INDEX 01 29:39:41
  TRACK 19 AUDIO
    INDEX 01 31:25:71
  TRACK 20 AUDIO
    INDEX 01 34:00:65
  TRACK 21 AUDIO
    INDEX 01 35:43:66
  TRACK 22 AUDIO
    INDEX 01 37:25:00
  TRACK 23 AUDIO
    INDEX 01 39:10:70
  TRACK 24 AUDIO
    INDEX 01 41:36:45
  TRACK 25 AUDIO
    INDEX 01 43:17:49
  TRACK 26 AUDIO
    INDEX 01 44:56:29
  TRACK 27 AUDIO
    INDEX 01 46:28:38
  TRACK 28 AUDIO
    INDEX 01 48:16:13
  TRACK 29 AUDIO
    INDEX 01 49:59:17
  TRACK 30 AUDIO
    INDEX 01 51:44:04
  TRACK 31 AUDIO
    INDEX 01 53:28:63
  TRACK 32 AUDIO
    INDEX 01 55:24:71
  TRACK 33 AUDIO
    INDEX 01 56:49:70
  TRACK 34 AUDIO
    INDEX 01 58:26:64
  TRACK 35 AUDIO
    INDEX 01 60:12:44
  TRACK 36 AUDIO
    INDEX 01 61:49:72
  TRACK 37 AUDIO
    INDEX 01 63:38:27
  TRACK 38 AUDIO
    INDEX 01 65:06:13
Wertung: (1)  
Hinzugefügt: 21 April 2010
RSS Feed
RSS Feed
Sprache
Deutsch Englisch Französisch
Mixsuche
Suchbegriff
Genauer Wortlaut
Alle Worte (UND)
Ein Wort (ODER)
Statistik
28762 Mixe eingetragen
27364 Tracklisten
Newsletter
E-Mail
Anmelden
Abmelden
SPONSOREN