Mixkatalog
 Einloggen
Login
Passwort

The 084th Story Hits: 154  

The 084th Story


Kurzbeschreibung:
Put Your Hand In The Air...! Studio 33 The 84th Story.
 
Crew/DJ: Studio 33 Reihe: Story
Stil: Dance Erscheinungsjahr: 2007
Anzahl Tonträger: 1 Spielzeit: 78:36
Trackliste:
Cue-Informationen:

FILE "filename.mp3" MP3
  TRACK 01 AUDIO
    INDEX 01 00:00:00
  TRACK 02 AUDIO
    INDEX 01 00:35:18
  TRACK 03 AUDIO
    INDEX 01 01:37:62
  TRACK 04 AUDIO
    INDEX 01 02:45:50
  TRACK 05 AUDIO
    INDEX 01 04:09:22
  TRACK 06 AUDIO
    INDEX 01 05:26:74
  TRACK 07 AUDIO
    INDEX 01 05:54:41
  TRACK 08 AUDIO
    INDEX 01 06:44:26
  TRACK 09 AUDIO
    INDEX 01 08:13:46
  TRACK 10 AUDIO
    INDEX 01 08:54:57
  TRACK 11 AUDIO
    INDEX 01 10:03:32
  TRACK 12 AUDIO
    INDEX 01 11:00:00
  TRACK 13 AUDIO
    INDEX 01 12:27:33
  TRACK 14 AUDIO
    INDEX 01 13:29:11
  TRACK 15 AUDIO
    INDEX 01 14:50:71
  TRACK 16 AUDIO
    INDEX 01 15:38:30
  TRACK 17 AUDIO
    INDEX 01 16:32:53
  TRACK 18 AUDIO
    INDEX 01 18:10:55
  TRACK 19 AUDIO
    INDEX 01 19:09:67
  TRACK 20 AUDIO
    INDEX 01 20:03:16
  TRACK 21 AUDIO
    INDEX 01 21:11:33
  TRACK 22 AUDIO
    INDEX 01 22:00:35
  TRACK 23 AUDIO
    INDEX 01 23:41:66
  TRACK 24 AUDIO
    INDEX 01 25:49:33
  TRACK 25 AUDIO
    INDEX 01 27:22:70
  TRACK 26 AUDIO
    INDEX 01 28:43:05
  TRACK 27 AUDIO
    INDEX 01 29:36:07
  TRACK 28 AUDIO
    INDEX 01 30:47:32
  TRACK 29 AUDIO
    INDEX 01 32:28:37
  TRACK 30 AUDIO
    INDEX 01 33:09:18
  TRACK 31 AUDIO
    INDEX 01 34:20:10
  TRACK 32 AUDIO
    INDEX 01 35:41:03
  TRACK 33 AUDIO
    INDEX 01 36:55:36
  TRACK 34 AUDIO
    INDEX 01 37:58:07
  TRACK 35 AUDIO
    INDEX 01 39:10:27
  TRACK 36 AUDIO
    INDEX 01 40:31:19
  TRACK 37 AUDIO
    INDEX 01 41:40:39
  TRACK 38 AUDIO
    INDEX 01 42:49:59
  TRACK 39 AUDIO
    INDEX 01 43:59:04
  TRACK 40 AUDIO
    INDEX 01 45:21:33
  TRACK 41 AUDIO
    INDEX 01 46:01:67
  TRACK 42 AUDIO
    INDEX 01 47:24:74
  TRACK 43 AUDIO
    INDEX 01 48:36:58
  TRACK 44 AUDIO
    INDEX 01 49:44:60
  TRACK 45 AUDIO
    INDEX 01 50:33:49
  TRACK 46 AUDIO
    INDEX 01 52:16:50
  TRACK 47 AUDIO
    INDEX 01 53:06:64
  TRACK 48 AUDIO
    INDEX 01 53:41:30
  TRACK 49 AUDIO
    INDEX 01 55:28:70
  TRACK 50 AUDIO
    INDEX 01 56:14:52
  TRACK 51 AUDIO
    INDEX 01 57:30:65
  TRACK 52 AUDIO
    INDEX 01 58:45:66
  TRACK 53 AUDIO
    INDEX 01 59:32:09
  TRACK 54 AUDIO
    INDEX 01 60:42:24
  TRACK 55 AUDIO
    INDEX 01 62:14:74
  TRACK 56 AUDIO
    INDEX 01 63:29:48
  TRACK 57 AUDIO
    INDEX 01 64:52:31
  TRACK 58 AUDIO
    INDEX 01 65:44:68
  TRACK 59 AUDIO
    INDEX 01 66:59:69
  TRACK 60 AUDIO
    INDEX 01 68:33:49
  TRACK 61 AUDIO
    INDEX 01 69:03:50
  TRACK 62 AUDIO
    INDEX 01 70:03:49
  TRACK 63 AUDIO
    INDEX 01 70:50:12
  TRACK 64 AUDIO
    INDEX 01 71:19:66
  TRACK 65 AUDIO
    INDEX 01 71:58:48
  TRACK 66 AUDIO
    INDEX 01 72:43:01
  TRACK 67 AUDIO
    INDEX 01 73:49:37
  TRACK 68 AUDIO
    INDEX 01 74:20:65
  TRACK 69 AUDIO
    INDEX 01 75:05:13
  TRACK 70 AUDIO
    INDEX 01 76:23:39
  TRACK 71 AUDIO
    INDEX 01 77:23:05
Wertung: (2)  
Hinzugefügt: 27 February 2009
RSS Feed
RSS Feed
Sprache
Deutsch Englisch Französisch
Mixsuche
Suchbegriff
Genauer Wortlaut
Alle Worte (UND)
Ein Wort (ODER)
Statistik
13340 Mixe eingetragen
13046 Tracklisten
Newsletter
E-Mail
Anmelden
Abmelden
SPONSOREN