Mixkatalog
 Einloggen
Login
Passwort

The 080th Story Hits: 918  

The 080th Story


Kurzbeschreibung:
Wild...Wild...West...! Studio 33 The 80th Story.
 
Crew/DJ: Studio 33 Reihe: Story
Stil: Dance Erscheinungsjahr: 2006
CDs: 1 Spielzeit: 79:47
Trackliste:
Cue-Informationen:

FILE "filename.mp3" MP3
  TRACK 01 AUDIO
    INDEX 01 00:00:00
  TRACK 02 AUDIO
    INDEX 01 00:18:21
  TRACK 03 AUDIO
    INDEX 01 02:19:26
  TRACK 04 AUDIO
    INDEX 01 03:22:50
  TRACK 05 AUDIO
    INDEX 01 04:28:10
  TRACK 06 AUDIO
    INDEX 01 05:23:41
  TRACK 07 AUDIO
    INDEX 01 07:01:40
  TRACK 08 AUDIO
    INDEX 01 08:36:13
  TRACK 09 AUDIO
    INDEX 01 09:37:02
  TRACK 10 AUDIO
    INDEX 01 11:04:68
  TRACK 11 AUDIO
    INDEX 01 12:26:03
  TRACK 12 AUDIO
    INDEX 01 13:51:14
  TRACK 13 AUDIO
    INDEX 01 15:23:28
  TRACK 14 AUDIO
    INDEX 01 16:59:28
  TRACK 15 AUDIO
    INDEX 01 18:58:06
  TRACK 16 AUDIO
    INDEX 01 20:35:60
  TRACK 17 AUDIO
    INDEX 01 22:04:71
  TRACK 18 AUDIO
    INDEX 01 22:35:60
  TRACK 19 AUDIO
    INDEX 01 23:30:49
  TRACK 20 AUDIO
    INDEX 01 25:23:60
  TRACK 21 AUDIO
    INDEX 01 26:49:39
  TRACK 22 AUDIO
    INDEX 01 28:25:39
  TRACK 23 AUDIO
    INDEX 01 30:08:28
  TRACK 24 AUDIO
    INDEX 01 31:49:39
  TRACK 25 AUDIO
    INDEX 01 32:44:28
  TRACK 26 AUDIO
    INDEX 01 34:35:60
  TRACK 27 AUDIO
    INDEX 01 36:25:41
  TRACK 28 AUDIO
    INDEX 01 38:08:44
  TRACK 29 AUDIO
    INDEX 01 39:46:11
  TRACK 30 AUDIO
    INDEX 01 41:11:27
  TRACK 31 AUDIO
    INDEX 01 41:39:14
  TRACK 32 AUDIO
    INDEX 01 43:18:01
  TRACK 33 AUDIO
    INDEX 01 45:02:10
  TRACK 34 AUDIO
    INDEX 01 46:12:55
  TRACK 35 AUDIO
    INDEX 01 47:38:05
  TRACK 36 AUDIO
    INDEX 01 49:04:51
  TRACK 37 AUDIO
    INDEX 01 50:22:21
  TRACK 38 AUDIO
    INDEX 01 51:58:21
  TRACK 39 AUDIO
    INDEX 01 52:27:61
  TRACK 40 AUDIO
    INDEX 01 52:59:15
  TRACK 41 AUDIO
    INDEX 01 54:05:50
  TRACK 42 AUDIO
    INDEX 01 55:19:38
  TRACK 43 AUDIO
    INDEX 01 56:42:43
  TRACK 44 AUDIO
    INDEX 01 57:08:62
  TRACK 45 AUDIO
    INDEX 01 57:38:62
  TRACK 46 AUDIO
    INDEX 01 58:08:62
  TRACK 47 AUDIO
    INDEX 01 59:23:62
  TRACK 48 AUDIO
    INDEX 01 60:24:58
  TRACK 49 AUDIO
    INDEX 01 61:25:54
  TRACK 50 AUDIO
    INDEX 01 62:19:36
  TRACK 51 AUDIO
    INDEX 01 63:37:40
  TRACK 52 AUDIO
    INDEX 01 64:32:12
  TRACK 53 AUDIO
    INDEX 01 65:51:73
  TRACK 54 AUDIO
    INDEX 01 66:07:73
  TRACK 55 AUDIO
    INDEX 01 66:44:08
  TRACK 56 AUDIO
    INDEX 01 67:55:05
  TRACK 57 AUDIO
    INDEX 01 68:28:50
  TRACK 58 AUDIO
    INDEX 01 69:07:70
  TRACK 59 AUDIO
    INDEX 01 70:06:61
  TRACK 60 AUDIO
    INDEX 01 71:19:52
  TRACK 61 AUDIO
    INDEX 01 72:05:30
  TRACK 62 AUDIO
    INDEX 01 73:00:20
  TRACK 63 AUDIO
    INDEX 01 74:08:71
  TRACK 64 AUDIO
    INDEX 01 74:27:58
  TRACK 65 AUDIO
    INDEX 01 74:56:43
  TRACK 66 AUDIO
    INDEX 01 75:49:28
  TRACK 67 AUDIO
    INDEX 01 76:48:57
  TRACK 68 AUDIO
    INDEX 01 77:28:26
  TRACK 69 AUDIO
    INDEX 01 77:48:10
  TRACK 70 AUDIO
    INDEX 01 78:08:10
  TRACK 71 AUDIO
    INDEX 01 78:31:27
  TRACK 72 AUDIO
    INDEX 01 78:52:52
Wertung: (37)  
Hinzugefügt: 26 February 2009
RSS Feed
RSS Feed
Sprache
Deutsch Englisch Französisch
Mixsuche
Suchbegriff
Genauer Wortlaut
Alle Worte (UND)
Ein Wort (ODER)
Statistik
30001 Mixe eingetragen
28600 Tracklisten
Newsletter
E-Mail
Anmelden
Abmelden
SPONSOREN