Mixkatalog
 Einloggen
Login
Passwort

Grandmix 1989 Hits: 209  

Grandmix 1989


Kurzbeschreibung:
Ben Liebrand präsentiert den Grandmix 1989.
 
Crew/DJ: Ben Liebrand Reihe: Grandmix
Stil: Pop Erscheinungsjahr: 1989
CDs: 1 Spielzeit: 55:38
Trackliste:
Cue-Informationen:

FILE "filename.mp3" MP3
  TRACK 01 AUDIO
    INDEX 01 00:00:00
  TRACK 02 AUDIO
    INDEX 01 05:53:42
  TRACK 03 AUDIO
    INDEX 01 12:22:30
  TRACK 04 AUDIO
    INDEX 01 18:31:55
  TRACK 05 AUDIO
    INDEX 01 27:23:50
  TRACK 06 AUDIO
    INDEX 01 33:53:57
  TRACK 07 AUDIO
    INDEX 01 40:25:20
  TRACK 08 AUDIO
    INDEX 01 45:21:67
  TRACK 09 AUDIO
    INDEX 01 49:00:20
Wertung: (1)  
Hinzugefügt: 3 March 2010
RSS Feed
RSS Feed
Sprache
Deutsch Englisch Französisch
Mixsuche
Suchbegriff
Genauer Wortlaut
Alle Worte (UND)
Ein Wort (ODER)
Statistik
28762 Mixe eingetragen
27364 Tracklisten
Newsletter
E-Mail
Anmelden
Abmelden
SPONSOREN