Mixkatalog
 Einloggen
Login
Passwort

Grandmix 1987 Hits: 209  

Grandmix 1987


Kurzbeschreibung:
Ben Liebrand präsentiert den Grandmix 1987.
 
Crew/DJ: Ben Liebrand Reihe: Grandmix
Stil: Pop Erscheinungsjahr: 1987
Anzahl Tonträger: 1 Spielzeit: 55:12
Trackliste:
Cue-Informationen:

FILE "filename.mp3" MP3
  TRACK 01 AUDIO
    INDEX 01 00:00:00
  TRACK 02 AUDIO
    INDEX 01 04:41:60
  TRACK 03 AUDIO
    INDEX 01 12:21:07
  TRACK 04 AUDIO
    INDEX 01 17:58:55
  TRACK 05 AUDIO
    INDEX 01 22:21:22
  TRACK 06 AUDIO
    INDEX 01 28:53:55
  TRACK 07 AUDIO
    INDEX 01 33:43:52
  TRACK 08 AUDIO
    INDEX 01 40:00:15
Wertung: (6)  
Hinzugefügt: 26 February 2010
RSS Feed
RSS Feed
Sprache
Deutsch Englisch Französisch
Mixsuche
Suchbegriff
Genauer Wortlaut
Alle Worte (UND)
Ein Wort (ODER)
Statistik
36566 Mixe eingetragen
34628 Tracklisten
Newsletter
E-Mail
Anmelden
Abmelden
SPONSOREN