Mixkatalog
 Einloggen
Login
Passwort

Dance 14 Hits: 138  

Dance 14


Kurzbeschreibung:
Royal präsentiert Dance Volume 14, gemixt von M.A.I.C.O.
 
Crew/DJ: Royal Reihe: Dance
Stil: Dance Erscheinungsjahr: 2000
CDs: 1 Spielzeit: 75:25
Trackliste:
Cue-Informationen:

FILE "filename.mp3" MP3
  TRACK 01 AUDIO
    INDEX 01 00:00:00
  TRACK 02 AUDIO
    INDEX 01 00:19:03
  TRACK 03 AUDIO
    INDEX 01 02:29:11
  TRACK 04 AUDIO
    INDEX 01 04:08:66
  TRACK 05 AUDIO
    INDEX 01 06:03:42
  TRACK 06 AUDIO
    INDEX 01 07:27:63
  TRACK 07 AUDIO
    INDEX 01 08:31:03
  TRACK 08 AUDIO
    INDEX 01 10:24:59
  TRACK 09 AUDIO
    INDEX 01 12:02:29
  TRACK 10 AUDIO
    INDEX 01 13:30:46
  TRACK 11 AUDIO
    INDEX 01 15:36:55
  TRACK 12 AUDIO
    INDEX 01 17:16:15
  TRACK 13 AUDIO
    INDEX 01 19:05:18
  TRACK 14 AUDIO
    INDEX 01 20:34:37
  TRACK 15 AUDIO
    INDEX 01 21:38:56
  TRACK 16 AUDIO
    INDEX 01 23:12:63
  TRACK 17 AUDIO
    INDEX 01 25:13:53
  TRACK 18 AUDIO
    INDEX 01 26:43:02
  TRACK 19 AUDIO
    INDEX 01 28:29:23
  TRACK 20 AUDIO
    INDEX 01 29:48:50
  TRACK 21 AUDIO
    INDEX 01 31:31:70
  TRACK 22 AUDIO
    INDEX 01 33:15:12
  TRACK 23 AUDIO
    INDEX 01 35:13:34
  TRACK 24 AUDIO
    INDEX 01 37:09:33
  TRACK 25 AUDIO
    INDEX 01 38:57:09
  TRACK 26 AUDIO
    INDEX 01 40:26:01
  TRACK 27 AUDIO
    INDEX 01 42:54:00
  TRACK 28 AUDIO
    INDEX 01 43:38:15
  TRACK 29 AUDIO
    INDEX 01 45:20:02
  TRACK 30 AUDIO
    INDEX 01 47:24:17
  TRACK 31 AUDIO
    INDEX 01 48:54:16
  TRACK 32 AUDIO
    INDEX 01 50:17:53
  TRACK 33 AUDIO
    INDEX 01 51:51:07
  TRACK 34 AUDIO
    INDEX 01 53:32:37
  TRACK 35 AUDIO
    INDEX 01 55:11:22
  TRACK 36 AUDIO
    INDEX 01 56:46:72
  TRACK 37 AUDIO
    INDEX 01 57:12:50
  TRACK 38 AUDIO
    INDEX 01 59:03:56
  TRACK 39 AUDIO
    INDEX 01 61:22:05
  TRACK 40 AUDIO
    INDEX 01 66:23:20
  TRACK 41 AUDIO
    INDEX 01 70:19:15
Wertung: (9)  
Hinzugefügt: 26 February 2010
RSS Feed
RSS Feed
Sprache
Deutsch Englisch Französisch
Mixsuche
Suchbegriff
Genauer Wortlaut
Alle Worte (UND)
Ein Wort (ODER)
Statistik
29475 Mixe eingetragen
28070 Tracklisten
Newsletter
E-Mail
Anmelden
Abmelden
SPONSOREN