Mixkatalog
 Einloggen
Login
Passwort

Fetenmix 3 Hits: 378  

Fetenmix 3


Kurzbeschreibung:
SWG präsentiert den Fetenmix Volume 3. 80 Party-Klassiker im Megamix, gemixt von DJ Deep.
 
Crew/DJ: SWG Reihe: Fetenmix
Stil: Party Erscheinungsjahr: 2004
Anzahl Tonträger: 2 Spielzeit: 147:04
Trackliste:
Cue-Informationen:

FILE "filename CD 1.mp3" MP3
  TRACK 01 AUDIO
    INDEX 01 00:00:00
  TRACK 02 AUDIO
    INDEX 01 02:34:45
  TRACK 03 AUDIO
    INDEX 01 04:34:28
  TRACK 04 AUDIO
    INDEX 01 06:21:69
  TRACK 05 AUDIO
    INDEX 01 08:03:47
  TRACK 06 AUDIO
    INDEX 01 09:27:37
  TRACK 07 AUDIO
    INDEX 01 10:53:27
  TRACK 08 AUDIO
    INDEX 01 11:57:26
  TRACK 09 AUDIO
    INDEX 01 13:04:35
  TRACK 10 AUDIO
    INDEX 01 15:15:11
  TRACK 11 AUDIO
    INDEX 01 15:45:08
  TRACK 12 AUDIO
    INDEX 01 17:41:12
  TRACK 13 AUDIO
    INDEX 01 19:03:21
  TRACK 14 AUDIO
    INDEX 01 21:40:39
  TRACK 15 AUDIO
    INDEX 01 22:56:31
  TRACK 16 AUDIO
    INDEX 01 23:54:05
  TRACK 17 AUDIO
    INDEX 01 25:02:07
  TRACK 18 AUDIO
    INDEX 01 26:27:46
  TRACK 19 AUDIO
    INDEX 01 28:07:08
  TRACK 20 AUDIO
    INDEX 01 28:48:66
  TRACK 21 AUDIO
    INDEX 01 30:26:21
  TRACK 22 AUDIO
    INDEX 01 31:35:63
  TRACK 23 AUDIO
    INDEX 01 34:32:68
  TRACK 24 AUDIO
    INDEX 01 35:27:32
  TRACK 25 AUDIO
    INDEX 01 35:55:36
  TRACK 26 AUDIO
    INDEX 01 37:17:70
  TRACK 27 AUDIO
    INDEX 01 37:54:66
  TRACK 28 AUDIO
    INDEX 01 39:28:17
  TRACK 29 AUDIO
    INDEX 01 40:26:25
  TRACK 30 AUDIO
    INDEX 01 41:38:71
  TRACK 31 AUDIO
    INDEX 01 42:42:21
  TRACK 32 AUDIO
    INDEX 01 44:43:69
  TRACK 33 AUDIO
    INDEX 01 45:53:72
  TRACK 34 AUDIO
    INDEX 01 46:58:02
  TRACK 35 AUDIO
    INDEX 01 47:59:00
  TRACK 36 AUDIO
    INDEX 01 49:08:15
  TRACK 37 AUDIO
    INDEX 01 50:11:10
  TRACK 38 AUDIO
    INDEX 01 51:08:00
  TRACK 39 AUDIO
    INDEX 01 52:27:32
  TRACK 40 AUDIO
    INDEX 01 53:32:30
  TRACK 41 AUDIO
    INDEX 01 55:12:08

FILE "filename CD 2.mp3" MP3
  TRACK 01 AUDIO
    INDEX 01 00:00:00
  TRACK 02 AUDIO
    INDEX 01 01:23:51
  TRACK 03 AUDIO
    INDEX 01 03:35:19
  TRACK 04 AUDIO
    INDEX 01 04:49:47
  TRACK 05 AUDIO
    INDEX 01 06:02:65
  TRACK 06 AUDIO
    INDEX 01 07:18:66
  TRACK 07 AUDIO
    INDEX 01 08:32:47
  TRACK 08 AUDIO
    INDEX 01 09:50:30
  TRACK 09 AUDIO
    INDEX 01 11:01:67
  TRACK 10 AUDIO
    INDEX 01 12:31:29
  TRACK 11 AUDIO
    INDEX 01 13:41:32
  TRACK 12 AUDIO
    INDEX 01 15:17:68
  TRACK 13 AUDIO
    INDEX 01 16:24:11
  TRACK 14 AUDIO
    INDEX 01 17:33:57
  TRACK 15 AUDIO
    INDEX 01 18:18:64
  TRACK 16 AUDIO
    INDEX 01 20:01:60
  TRACK 17 AUDIO
    INDEX 01 20:50:67
  TRACK 18 AUDIO
    INDEX 01 22:03:03
  TRACK 19 AUDIO
    INDEX 01 22:46:23
  TRACK 20 AUDIO
    INDEX 01 23:32:59
  TRACK 21 AUDIO
    INDEX 01 24:33:38
  TRACK 22 AUDIO
    INDEX 01 25:47:33
  TRACK 23 AUDIO
    INDEX 01 27:10:33
  TRACK 24 AUDIO
    INDEX 01 28:02:64
  TRACK 25 AUDIO
    INDEX 01 28:54:69
  TRACK 26 AUDIO
    INDEX 01 32:11:31
  TRACK 27 AUDIO
    INDEX 01 32:54:56
  TRACK 28 AUDIO
    INDEX 01 33:41:44
  TRACK 29 AUDIO
    INDEX 01 34:45:41
  TRACK 30 AUDIO
    INDEX 01 35:18:27
  TRACK 31 AUDIO
    INDEX 01 36:08:68
  TRACK 32 AUDIO
    INDEX 01 37:06:27
  TRACK 33 AUDIO
    INDEX 01 38:22:62
  TRACK 34 AUDIO
    INDEX 01 39:19:53
  TRACK 35 AUDIO
    INDEX 01 39:47:68
  TRACK 36 AUDIO
    INDEX 01 40:50:04
  TRACK 37 AUDIO
    INDEX 01 42:00:36
  TRACK 38 AUDIO
    INDEX 01 43:25:21
  TRACK 39 AUDIO
    INDEX 01 45:02:14
  TRACK 40 AUDIO
    INDEX 01 46:45:39
  TRACK 41 AUDIO
    INDEX 01 48:14:44
Wertung: (1)  
Hinzugefügt: 21 February 2010
RSS Feed
RSS Feed
Sprache
Deutsch Englisch Französisch
Mixsuche
Suchbegriff
Genauer Wortlaut
Alle Worte (UND)
Ein Wort (ODER)
Statistik
12453 Mixe eingetragen
12181 Tracklisten
Newsletter
E-Mail
Anmelden
Abmelden
SPONSOREN