Mixkatalog
 Einloggen
Login
Passwort

The 002nd Story Hits: 186  

The 002nd Story


Kurzbeschreibung:
Studio 33 präsentiert It´s Not A Trick - It´s A Session, The Story Of February 1996.
 
Crew/DJ: Studio 33 Reihe: Story
Stil: Dance Erscheinungsjahr: 1996
CDs: 1 Spielzeit: 74:22
Trackliste:
Cue-Informationen:

FILE "filename.mp3" MP3
  TRACK 01 AUDIO
    INDEX 01 00:00:00
  TRACK 02 AUDIO
    INDEX 01 00:28:00
  TRACK 03 AUDIO
    INDEX 01 29:03:00
  TRACK 04 AUDIO
    INDEX 01 49:38:00
Wertung: (56)  
Hinzugefügt: 21 January 2009
RSS Feed
RSS Feed
Sprache
Deutsch Englisch Französisch
Mixsuche
Suchbegriff
Genauer Wortlaut
Alle Worte (UND)
Ein Wort (ODER)
Statistik
29841 Mixe eingetragen
28217 Tracklisten
Newsletter
E-Mail
Anmelden
Abmelden
SPONSOREN