Mixkatalog
 Einloggen
Login
Passwort

The 002nd Story Hits: 1  

The 002nd Story


Kurzbeschreibung:
Studio 33 präsentiert It´s Not A Trick - It´s A Session, The Story Of February 1996.
 
Crew/DJ: Studio 33 Reihe: Story
Stil: Dance Erscheinungsjahr: 1996
Anzahl Tonträger: 1 Spielzeit: 74:22
Trackliste:
    Dance Session:
  1. Intro
  2. K.O.'s feat. M. Buffer - Let's Get Ready To Rumble
  3. Love Message - Love Message
  4. Mark 'Oh - Tell Me Why
  5. Technotronic - I Want You By My Side
  6. Outta Control - Tonight It's Partytime
  7. Me & My - Baby Boy
  8. Gilly B. - Tonight
  9. DJ Panda - Dreaming Of Fantasy
  10. Lisa Oakfield - La La La
  11. Jill Dreski - This Is My Time
  12. Indra - We Belong Together
  13. Love Dove - Say You Want Me
  14. Capella - I Need Your Love
  15. Snap - Rame-Beloved
    Groove Session:
  16. Down Low - Don't Look Any Further
  17. Skee-Lo - I Wish (Remix)
  18. L.V. - Throw Your Hands Up
  19. Coolio - Too Hot
  20. Max-A-Million - Sexual Healing
  21. Sir Prize - Love Is The Answer
  22. Sonic Dream Collective - Oh Baby All
  23. E-Rotic - Help Me Dr. Dick
  24. Flip Da Scrip - Throw Ya Hands In The Air
  25. Beat System - Fresh
    Rave Session:
  26. Music Instructor - Throw Your Hands In The Air
  27. Megababe - Partytime
  28. Fedi - Tell Me Why
  29. General Base - Thank U (For Your Love)
  30. C.O.R. feat. Mike Nova - Paradise
  31. Aldus Haza - Noise Theme
  32. 2 Unlimited - Jump For Joy
  33. Intermission - Miracle Of Love
  34. Party Animals - Have You Ever Been Mellow?
  35. Ultrasonic - Make That Move
  36. Shanin & Simon - Do The Right Thing
  37. Dune - Rainbow To The Stars
  38. Blümchen - Herz An Herz
Cue-Informationen:

FILE "filename.mp3" MP3
  TRACK 01 AUDIO
    INDEX 01 00:00:00
  TRACK 02 AUDIO
    INDEX 01 00:28:00
  TRACK 03 AUDIO
    INDEX 01 29:03:00
  TRACK 04 AUDIO
    INDEX 01 49:38:00
Wertung: (47)  
Hinzugefügt: 21 January 2009
RSS Feed
RSS Feed
Sprache
Deutsch Englisch Französisch
Mixsuche
Suchbegriff
Genauer Wortlaut
Alle Worte (UND)
Ein Wort (ODER)
Statistik
14711 Mixe eingetragen
14399 Tracklisten
Newsletter
E-Mail
Anmelden
Abmelden
SPONSOREN