Mixkatalog
 Einloggen
Login
Passwort

Deep House Musica 1 Hits: 314  

Deep House Musica 1


Kurzbeschreibung:
Deep präsentiert Deep House Musica Volume 1.
 
Crew/DJ: Deep Reihe: Deep House Musica
Stil: House Erscheinungsjahr: 2001
Anzahl Tonträger: 1 Spielzeit: 78:12
Trackliste:
Cue-Informationen:

FILE "filename.mp3" MP3 
  TRACK 01 AUDIO
    INDEX 01 00:00:00
  TRACK 02 AUDIO
    INDEX 01 03:25:40
  TRACK 03 AUDIO
    INDEX 01 05:48:70
  TRACK 04 AUDIO
    INDEX 01 07:33:03
  TRACK 05 AUDIO
    INDEX 01 12:38:37
  TRACK 06 AUDIO
    INDEX 01 14:56:22
  TRACK 07 AUDIO
    INDEX 01 20:15:48
  TRACK 08 AUDIO
    INDEX 01 23:04:04
  TRACK 09 AUDIO
    INDEX 01 26:39:41
  TRACK 10 AUDIO
    INDEX 01 29:55:01
  TRACK 11 AUDIO
    INDEX 01 33:31:39
  TRACK 12 AUDIO
    INDEX 01 35:41:45
  TRACK 13 AUDIO
    INDEX 01 40:46:14
  TRACK 14 AUDIO
    INDEX 01 44:16:16
  TRACK 15 AUDIO
    INDEX 01 48:07:68
  TRACK 16 AUDIO
    INDEX 01 53:26:37
  TRACK 17 AUDIO
    INDEX 01 55:21:67
  TRACK 18 AUDIO
    INDEX 01 58:26:71
  TRACK 19 AUDIO
    INDEX 01 61:49:45
  TRACK 20 AUDIO
    INDEX 01 62:54:61
  TRACK 21 AUDIO
    INDEX 01 65:05:06
  TRACK 22 AUDIO
    INDEX 01 67:15:38
  TRACK 23 AUDIO
    INDEX 01 70:08:38
  TRACK 24 AUDIO
    INDEX 01 73:13:19
  TRACK 25 AUDIO
    INDEX 01 74:40:44
  TRACK 26 AUDIO
    INDEX 01 77:18:25
Wertung: (1)  
Hinzugefügt: 30 December 2009
RSS Feed
RSS Feed
Sprache
Deutsch Englisch Französisch
Mixsuche
Suchbegriff
Genauer Wortlaut
Alle Worte (UND)
Ein Wort (ODER)
Statistik
12238 Mixe eingetragen
11978 Tracklisten
Newsletter
E-Mail
Anmelden
Abmelden
SPONSOREN