Mixkatalog
 Einloggen
Login
Passwort

Deep Dance 085 Hits: 150  

Deep Dance 085


Kurzbeschreibung:
Deep präsentiert Deep Dance 85, gemixt von DJ O.
 
Crew/DJ: Deep Reihe: DD Serie Erstauflage
Stil: Dance Erscheinungsjahr: 2002
Anzahl Tonträger: 1 Spielzeit: 73:10
Trackliste:
Cue-Informationen:

FILE "filename.mp3" MP3
  TRACK 01 AUDIO
    INDEX 01 00:00:00
  TRACK 02 AUDIO
    INDEX 01 00:32:53
  TRACK 03 AUDIO
    INDEX 01 34:07:56
  TRACK 04 AUDIO
    INDEX 01 54:07:48
Wertung: (1)  
Hinzugefügt: 29 December 2009
RSS Feed
RSS Feed
Sprache
Deutsch Englisch Französisch
Mixsuche
Suchbegriff
Genauer Wortlaut
Alle Worte (UND)
Ein Wort (ODER)
Statistik
12974 Mixe eingetragen
12682 Tracklisten
Newsletter
E-Mail
Anmelden
Abmelden
SPONSOREN