Mixkatalog
 Einloggen
Login
Passwort

The 001st Story Hits: 6  

The 001st Story


Kurzbeschreibung:
Let´s The Story Begin, Studio 33 The Story Of January. Der erste Teil der grossen Studio 33 Serie.
 
Crew/DJ: Studio 33 Reihe: Story
Stil: Dance Erscheinungsjahr: 1996
Anzahl Tonträger: 1 Spielzeit: 75:33
Trackliste:
    Dancestory:
  1. Intro
  2. Masterboy - Land Of Dreaming
  3. Robert Miles - Children
  4. Blizzard - It' Only Love
  5. Double Vision - Knockin'
  6. Shannon James - Far Away
  7. Stanley Foort - You Make Me Believe In Magic
  8. Magic Affair - Energy Of Light
  9. Sqeezer - Scandy Randy
  10. Culture Beat - Inside Out (Remix)
  11. Bliss Team - Love Is Forever
  12. Stricktly M.O.R. - Long Long Nite
  13. Dynamic Base - All Of My Life
    Housestory:
  14. Intro
  15. Fun Factory - Doh Wah Diddy
  16. Maxx - Move Your Body
  17. Tinman - Gudvibe
  18. Paris By Air - All Around The Sound
  19. T.H.K. - So Big
  20. No Sukkaz - 1-2-3-4 All The Ladies On The Floor
  21. Two Culture - (He's A) Dreamer
  22. L.A. Switch - Kiss Me Baby
  23. Double Dee - Found Love '96
  24. Sweetbox - Shakalaka
  25. Wildchild - Renegade Master
  26. Mighty Dub Cats - Magic Carpet Ride
  27. Time Zone - Imagination
  28. Rodriguez - Revolution
    Ravestory:
  29. Intro
  30. Moratto - Radar System
  31. Cherry Coke - No Hages El Cherokee
  32. Nova - Feel It
  33. DJ Sammy feat. Carisma - Life Is Just A Game
  34. Technohead - Headsex
  35. Perplexer - Love Is In The Air
  36. Eniac - My Way To Planet Love
  37. DJ Paul Elstak - Don't Leave Me Alone
  38. DJ Paul Elstak - Luv U More
  39. R.M.B. - Passport To Heaven
  40. Tom Knox vs. Steve - Vision Of Love
  41. Scooter - Back In The U.K.
  42. Deejay Intro 1
Cue-Informationen:

FILE "filename.mp3" MP3
  TRACK 01 AUDIO
    INDEX 01 00:00:00
  TRACK 02 AUDIO
    INDEX 01 00:47:50
  TRACK 03 AUDIO
    INDEX 01 24:56:17
  TRACK 04 AUDIO
    INDEX 01 50:11:02
  TRACK 05 AUDIO
    INDEX 01 74:30:37
Wertung: (81)  
Hinzugefügt: 21 January 2009
RSS Feed
RSS Feed
Sprache
Deutsch Englisch Französisch
Mixsuche
Suchbegriff
Genauer Wortlaut
Alle Worte (UND)
Ein Wort (ODER)
Statistik
14711 Mixe eingetragen
14399 Tracklisten
Newsletter
E-Mail
Anmelden
Abmelden
SPONSOREN