Mixkatalog
 Einloggen
Login
Passwort

The 001st Story Hits: 59  

The 001st Story


Kurzbeschreibung:
Let´s The Story Begin, Studio 33 The Story Of January. Der erste Teil der grossen Studio 33 Serie.
 
Crew/DJ: Studio 33 Reihe: Story
Stil: Dance Erscheinungsjahr: 1996
CDs: 1 Spielzeit: 75:33
Trackliste:
Cue-Informationen:

FILE "filename.mp3" MP3
  TRACK 01 AUDIO
    INDEX 01 00:00:00
  TRACK 02 AUDIO
    INDEX 01 00:47:50
  TRACK 03 AUDIO
    INDEX 01 24:56:17
  TRACK 04 AUDIO
    INDEX 01 50:11:02
  TRACK 05 AUDIO
    INDEX 01 74:30:37
Wertung: (84)  
Hinzugefügt: 21 January 2009
RSS Feed
RSS Feed
Sprache
Deutsch Englisch Französisch
Mixsuche
Suchbegriff
Genauer Wortlaut
Alle Worte (UND)
Ein Wort (ODER)
Statistik
32424 Mixe eingetragen
30806 Tracklisten
Newsletter
E-Mail
Anmelden
Abmelden
SPONSOREN