Mixkatalog
 Einloggen
Login
Passwort

Party Compilation 01 Hits: 41  

Party Compilation 01


Kurzbeschreibung:
Der erste Mix aus einer der besten Party Serien aus dem Hause Studio 33. Party Compilation Volume 1, The Ultimate Party Compilation.
 
Crew/DJ: Studio 33 Reihe: Party Compilation
Stil: Party Erscheinungsjahr: 1996
CDs: 1 Spielzeit: 74:11
Trackliste:
Cue-Informationen:

FILE "filename.mp3" MP3
  TRACK 01 AUDIO
    INDEX 00 00:00:00
  TRACK 02 AUDIO
    INDEX 01 00:49:43
  TRACK 03 AUDIO
    INDEX 01 34:59:44
  TRACK 04 AUDIO
    INDEX 01 35:55:25
  TRACK 05 AUDIO
    INDEX 01 56:28:09
  TRACK 06 AUDIO
    INDEX 01 61:25:07
  TRACK 07 AUDIO
    INDEX 01 67:56:54
Wertung: (231)  
Hinzugefügt: 23 December 2008

 Kommentare
Von:
Krzysztof Haase
Am:
22 January 2013
This music is the best!
RSS Feed
RSS Feed
Sprache
Deutsch Englisch Französisch
Mixsuche
Suchbegriff
Genauer Wortlaut
Alle Worte (UND)
Ein Wort (ODER)
Statistik
30001 Mixe eingetragen
28600 Tracklisten
Newsletter
E-Mail
Anmelden
Abmelden
SPONSOREN