Mixkatalog
 Einloggen
Login
Passwort

Party Compilation 01 Hits: 1  

Party Compilation 01


Kurzbeschreibung:
Der erste Mix aus einer der besten Party Serien aus dem Hause Studio 33. Party Compilation Volume 1, The Ultimate Party Compilation.
 
Crew/DJ: Studio 33 Reihe: Party Compilation
Stil: Party Erscheinungsjahr: 1996
Anzahl Tonträger: 1 Spielzeit: 74:11
Trackliste:
    Party Mix One:
    Spieldauer 35'00
  1. Opening - Ole Ole Ole
  2. Belinda Carlisle - Heaven Is A Place On Earth
  3. Dominoe - Here I Am
  4. Middle Of The Road - Chirpy Cheep Cheep
  5. Gompie - Who The F*ck Is Alice?
  6. Daniel Boone - Beautiful Sunday
  7. Marmalade - Ob La Di, Ob La Da
  8. Eurythmics - Sweet Dreams
  9. Depeche Mode - Just Can't Get Enough
  10. Chocolate - Ritmo De La Noche
  11. Kaoma - Lambada
  12. Saragossa Band - Dance With The Saragossa Band
  13. Saragossa Band - Agadou
  14. Eddy Grant - Gimme Hope Jo'anna
  15. Steve Miller Band - Abracadabra
  16. Eddy Grant - Baby Come Back
  17. Bananarama - Venus
  18. Buggles - Video Killed The Radio Star
  19. Gibson Brothers - Cuba
  20. Tom Gerhard - Playa
  21. TNT Party Zone - Vamos A La Playa
  22. Prince Ital. Joe - Happy People
  23. Dr. Alban - It's My Life
  24. Dr. Alban - Sing Hallelujah
  25. Corona - Rhythm Of The Night
  26. Rednex - Cotton Eye Joe
  27. Boney M. - Gotta Go Home
  28. Divine - Shoot Your Shot
  29. Kiss - I Was Made For Loving You
  30. Nick Straker Band - A Walk In The Park
  31. Gottlieb Wendehals - Polonäse Blankenese
  32. T.N.N. - La Cucamarcha
  33. 2 Cowboys - Everybody Gonfi-Gon
  34. New Order - Blue Monday
  35. Trans-X - Living On Video
  36. Van Halen - Jump
  37. Dire Straits - Money For Nothing
  38. Rolling Stones - Satisfaction
  39. Queen - A Kind Of Magic
  40. Robin Gibb - Juliet
  41. Scatman John - Scatman
  42. Ice MC - Think About That Way
  43. Culture Beat - Mr. Vain
  44. DJ Miko - What's Up
  45. Just Luis - American Pie
  46. E.L.O. - Hold On Tight
  47. Ultravox - Dancing With Tears In My Eyes
  48. Starship - We Build The City
  49. The Chordettes - Lollipop
  50. Boytronic - You
  51. Soft Cell - Tainted Love
  52. Altered Images - Happy Birthday
  53. Bonnie Tyler - Holding Out For A Hero
  54. Supertramp - Dreamer
  55. Bryan Adams - Summer Of '69
  56. Indiana - All I Need Is Love (Remix)
    Party Mix Two:
    Spieldauer 21'28
  57. Opening - Musik Ist Trumpf
  58. Jermaine Jackson & Pia Zadora - When The Rain Begins To Fall
  59. Michael Sembello - Maniac
  60. Kim Wilde - Kids In America
  61. Beagle Music Ltd. - Ice In The Sunshine
  62. Bruce Springsteen - Dancing In The Dark
  63. E.L.O. - Rock 'N' Roll Is King
  64. Flash & The Pan - Early Morning Wake Up Call
  65. Joe Jackson - Steppin' Out
  66. Wham! - Wake Me Up Before You Go-Go
  67. Chubby Checker - Let's Twist Again
  68. Chris Montez - Let's Dance
  69. Bobby Day - Rockin' Robin
  70. Dion - Runaround Sue
  71. Ramba Zamba - Zicke, Zacke
  72. Geier Sturzflug - Bruttosozialprodukt
  73. D.Ö.F. - Codo
  74. Kiz - Sennerin Vom Königsee
  75. Peter Schilling - Major Tom
  76. A-Ha - Take On Me
  77. F.R. David - Words ('95er Remix)
  78. Kenny Loggins - Footloose
  79. Dire Straits - Walk Of Life
  80. Elton John - I'm Still Standing
  81. Phil Collins - Don't Loose My Number
  82. The Rubbettes - Juke Box Jive
  83. Status Quo - What You're Proposing
  84. Shakin Stevens - Marie, Marie
  85. Racey - Some Girls
  86. Kim Wilde - Chequered Love
  87. Culture Club - Karma Chameleon
  88. George Baker Selection - Paloma Blanca ('95er Remix)
  89. Phil Collins - You Can't Hurry Love
  90. Soulsisters - The Way To Your Heart
  91. The Sweet - Ballroom Blitz
  92. Outro - Muppet Show
    Bonustrack:
    Spieldauer 4'57
  93. Gompie - Who The F*ck Is Alice?
    Spieldauer 6'32
  94. Indiana - All I Need Is Love
    Spieldauer 6'15
  95. Gottlieb Wendehals - Polonäse Blankenese
Cue-Informationen:

FILE "filename.mp3" MP3
  TRACK 01 AUDIO
    INDEX 00 00:00:00
  TRACK 02 AUDIO
    INDEX 01 00:49:43
  TRACK 03 AUDIO
    INDEX 01 34:59:44
  TRACK 04 AUDIO
    INDEX 01 35:55:25
  TRACK 05 AUDIO
    INDEX 01 56:28:09
  TRACK 06 AUDIO
    INDEX 01 61:25:07
  TRACK 07 AUDIO
    INDEX 01 67:56:54
Wertung: (230)  
Hinzugefügt: 23 December 2008

 Kommentare
Von:
Krzysztof Haase
Am:
22 January 2013
This music is the best!
RSS Feed
RSS Feed
Sprache
Deutsch Englisch Französisch
Mixsuche
Suchbegriff
Genauer Wortlaut
Alle Worte (UND)
Ein Wort (ODER)
Statistik
14711 Mixe eingetragen
14399 Tracklisten
Newsletter
E-Mail
Anmelden
Abmelden
SPONSOREN