Mixkatalog
 Einloggen
Login
Passwort

Deep Dance 069 (After 2 Years Of Fakes) Hits: 378  

Deep Dance 069 (After 2 Years Of Fakes)


Kurzbeschreibung:
Deep präsentiert Deep Dance 69 (After 2 Years Of Fakes). Hier die nächste Nummer aus der Deep Edition Reihe. Auch Egypt Reihe genannt.
 
Crew/DJ: Deep Reihe: DD Serie Edition
Stil: Dance Erscheinungsjahr: 2002
Anzahl Tonträger: 1 Spielzeit: 78:49
Trackliste:
Cue-Informationen:

FILE "filename.mp3" MP3
  TRACK 01 AUDIO
    INDEX 01 00:00:00
  TRACK 02 AUDIO
    INDEX 01 00:56:16
  TRACK 03 AUDIO
    INDEX 01 31:41:05
  TRACK 04 AUDIO
    INDEX 01 54:58:47
Wertung: (2)  
Hinzugefügt: 29 December 2009
RSS Feed
RSS Feed
Sprache
Deutsch Englisch Französisch
Mixsuche
Suchbegriff
Genauer Wortlaut
Alle Worte (UND)
Ein Wort (ODER)
Statistik
13748 Mixe eingetragen
13445 Tracklisten
Newsletter
E-Mail
Anmelden
Abmelden
SPONSOREN