Mixkatalog
 Einloggen
Login
Passwort

Deep Dance 069 (After 2 Years Of Fakes) Hits: 4  

Deep Dance 069 (After 2 Years Of Fakes)


Kurzbeschreibung:
Deep Records präsentiert Deep Dance 69 (After 2 Years Of Fakes). Hier die nächste Nummer aus der Deep Edition Reihe. Auch Egypt Reihe genannt.
 
Crew/DJ: Deep Records Reihe: DD Serie Edition
Stil: Dance Erscheinungsjahr: 2002
Anzahl Tonträger: 1 Spielzeit: 78:49
Trackliste:
    Deep Dance Take 69:
    Spieldauer 31'40
  1. Intro
  2. Noemi - When Angels Kiss
  3. Kate Ryan - Desenchantee
  4. SM Trax - Feel The Music
  5. ALex Butcher - More & More
  6. Silver Blue - Do You Know
  7. Dance Nation - Words
  8. Rimini Project - No More Goodbye
  9. Master Blaster - Hypnotic Tango
  10. Jordan & Baker - Explode
  11. Barracuda - Damn
  12. Groove Coverage - God Is A Girl
  13. Eddie Spagheddie - Was Wollen
  14. Svenson & Gielen - We Know What You Did
  15. Jan Wayne - More Than Feeling
  16. Rednex - Cotton Eye Joe 2002
  17. Akkerson - What Ive Got
  18. Paffendorf - Crazy, Sexy, Marvellous
  19. Masterboy - I Need A Lover Tonight
  20. Hi Tech - Let There Be Light
  21. Novaspace - Guardian Angel
  22. Marc Aurel - Sound Of Love
  23. Vintage Beat - Sometimes
  24. DJ Luka - I Found Peace
  25. Brooklyn Bounce - Bring It Back
  26. DJ Sammy - Boys Of Summer
  27. Madonna - Die Another Day
  28. Milton - I Can See In Your Eye's
  29. A*Teens - Floorfiller
  30. Bobby Summer - Im Only Shooting Love
  31. Boomfunk Mc's - Something Going On
  32. No Angels/Mousse T. - Let's Go To Bed
  33. Sugababes - Round & Round
  34. F.D - Somebody's Watching Me
  35. Elgar - Sweetie Pie
  36. Billy Crawford - You Did'nt Expect That
  37. Tim De Luxe - It Just Wont Do
  38. Lohen & Lomax - Live On
  39. In Grid - Tu Es Foutu
    Deep Slow:
    Spieldauer 23'18
  40. No Doubt - Underneath It All
  41. Eminem - Cleaning Out My Closet
  42. Avril Lavigne - Complicated
  43. Sarah Connner - One Night Stand
  44. Holly Valance - Down Boy
  45. ABS - What You've Got
  46. Nelly - Dillema
  47. Tweet - Call Me
  48. Natural - Will It Ever
  49. Blackstreet - Wizzy Now
  50. Janette - Rock My Life
  51. Eve - Gangsta Lovin
  52. Lee Ann Rimes - Life Goes On
  53. Ace Of Base - Beautiful Morning
  54. Anastacia - Why Do You Lie To Me
  55. Xzibit - Multiply
  56. Truth Hurts - Addictive
  57. Christina Aguilera - Dirty
  58. Nivea - Dont Mess With My Man
  59. Shaggy - Hey SexyLady
  60. P!nk - Just Like A Pill
  61. DJ Tomekk - Kimnotyze
  62. Britney Spears - Boys
    Deep Italo:
    Spieldauer 23'51
  63. Dama - Crying
  64. Sarina Paris - The Single Life
  65. Cloe - Angel In The Night
  66. Club 99 - Shake Your Body
  67. Aceproject - Summer Of Love
  68. Edge Of Universe - Astral Plane
  69. Eknologika - Fall In Love
  70. Elizabeth - Crazy Red
  71. White Label - My Evil
  72. Shancek - La Cabasa
  73. The Soundlovers - We Wanna Party
  74. Flexter - You Turn Me On
  75. Luca Zeta - Ill Be Good To You
  76. Ellejoy - Take Me To The Drop
  77. Hotel Saint George - Never Say Never
  78. Dub J - Con 2 Nastro Rosa
  79. Sara MC Lee - Waiting
  80. Fantasy Project - Crazy Baby
  81. Jimmy Gomma - More Than This
  82. Yasmin Nine - In My Arms
  83. Bee Four - The Same Way
Cue-Informationen:

FILE "filename.mp3" MP3
  TRACK 01 AUDIO
    INDEX 01 00:00:00
  TRACK 02 AUDIO
    INDEX 01 00:56:16
  TRACK 03 AUDIO
    INDEX 01 31:41:05
  TRACK 04 AUDIO
    INDEX 01 54:58:47
Wertung: (1)   Hinzugefügt: 29 December 2009
RSS Feed
RSS Feed
Sprache
Deutsch Englisch Französisch
Mixsuche
Suchbegriff
Genauer Wortlaut
Alle Worte (UND)
Ein Wort (ODER)
Statistik
14805 Mixe eingetragen
14492 Tracklisten
Newsletter
E-Mail
Anmelden
Abmelden
SPONSOREN