Mixkatalog
 Einloggen
Login
Passwort

Deep Dance 066 Hits: 1  

Deep Dance 066


Kurzbeschreibung:
Deep präsentiert Deep Dance Volume 66. Das war´s, der letzte Deep Mix gemixt von DJ Deep persönlich. Ab nun wird die Serie von Fakern fortgesetzt. Deep selbst macht seit diesem Zeitpunkt legale Mixe für SWG und die Yearmix Show für den Jahresmix.
 
Crew/DJ: Deep Reihe: Deep Dance Serie
Stil: Dance Erscheinungsjahr: 2000
CDs: 1 Spielzeit: 74:12
Trackliste:
Cue-Informationen:

FILE "filename.mp3" MP3
  TRACK 01 AUDIO
    INDEX 01 00:00:00
  TRACK 02 AUDIO
    INDEX 01 00:38:51
  TRACK 03 AUDIO
    INDEX 01 35:38:22
  TRACK 04 AUDIO
    INDEX 01 54:56:17
Wertung: (1)  
Hinzugefügt: 28 December 2009
RSS Feed
RSS Feed
Sprache
Deutsch Englisch Französisch
Mixsuche
Suchbegriff
Genauer Wortlaut
Alle Worte (UND)
Ein Wort (ODER)
Statistik
29581 Mixe eingetragen
28170 Tracklisten
Newsletter
E-Mail
Anmelden
Abmelden
SPONSOREN