Mixkatalog
 Einloggen
Login
Passwort

Deep Dance 065 Hits: 117  

Deep Dance 065


Kurzbeschreibung:
Deep präsentiert Deep Dance Volume 65. Gemixt von DJ Deep. Wieder erschienen in der Pappbox.
 
Crew/DJ: Deep Reihe: Deep Dance Serie
Stil: Dance Erscheinungsjahr: 2000
CDs: 1 Spielzeit: 74:14
Trackliste:
Cue-Informationen:

FILE "filename.mp3" MP3
  TRACK 01 AUDIO
    INDEX 01 00:00:00
  TRACK 02 AUDIO
    INDEX 01 01:43:31
  TRACK 03 AUDIO
    INDEX 01 36:29:22
  TRACK 04 AUDIO
    INDEX 01 55:59:16
Wertung: (3)  
Hinzugefügt: 28 December 2009
RSS Feed
RSS Feed
Sprache
Deutsch Englisch Französisch
Mixsuche
Suchbegriff
Genauer Wortlaut
Alle Worte (UND)
Ein Wort (ODER)
Statistik
34691 Mixe eingetragen
32812 Tracklisten
Newsletter
E-Mail
Anmelden
Abmelden
SPONSOREN