Mixkatalog
 Einloggen
Login
Passwort

Deep Dance 062 Hits: 390  

Deep Dance 062


Kurzbeschreibung:
Deep präsentiert Deep Dance Volume 62 - The Final Message In This Century. Gemixt von DJ Deep. Mix in einer Papphülle erschienen.
 
Crew/DJ: Deep Reihe: Deep Dance Serie
Stil: Dance Erscheinungsjahr: 1999
CDs: 1 Spielzeit: 73:59
Trackliste:
Cue-Informationen:

FILE "filename.mp3" MP3
  TRACK 01 AUDIO
    INDEX 01 00:00:00
  TRACK 02 AUDIO
    INDEX 01 01:28:01
  TRACK 03 AUDIO
    INDEX 01 34:24:06
  TRACK 04 AUDIO
    INDEX 01 54:09:73
Wertung: (10)  
Hinzugefügt: 28 December 2009
RSS Feed
RSS Feed
Sprache
Deutsch Englisch Französisch
Mixsuche
Suchbegriff
Genauer Wortlaut
Alle Worte (UND)
Ein Wort (ODER)
Statistik
29475 Mixe eingetragen
28070 Tracklisten
Newsletter
E-Mail
Anmelden
Abmelden
SPONSOREN