Mixkatalog
SPONSOREN
 Einloggen
Login
Passwort

Deep Dance 059 Hits: 229  

Deep Dance 059


Kurzbeschreibung:
Deep präsentiert Deep Dance Volume 59 - Der Sommermix 1999. Gemixt von DJ Deep. Mix erschien in einem dicken Digipack.
 
Crew/DJ: Deep Reihe: DD Serie by Deep
Stil: Dance Erscheinungsjahr: 1999
Anzahl Tonträger: 1 Spielzeit: 71:53
Trackliste:
Cue-Informationen:

FILE "filename.mp3" MP3
  TRACK 01 AUDIO
    INDEX 01 00:00:00
  TRACK 02 AUDIO
    INDEX 01 36:15:34
  TRACK 03 AUDIO
    INDEX 01 58:06:15
Wertung: (8)  
Hinzugefügt: 28 December 2009
RSS Feed
RSS Feed
Sprache
Deutsch Englisch Französisch
Mixsuche
Suchbegriff
Genauer Wortlaut
Alle Worte (UND)
Ein Wort (ODER)
Statistik
36074 Mixe eingetragen
34133 Tracklisten
Newsletter
E-Mail
Anmelden
Abmelden
SPONSOREN