Mixkatalog
 Einloggen
Login
Passwort

Deep Dance 053 Hits: 1  

Deep Dance 053


Kurzbeschreibung:
Deep präsentiert Deep Dance Volume 53 - Der Sommermix 1998. Gemixt von DJ Deep. Auch dieser Mix erschien wieder im der Papphülle.
 
Crew/DJ: Deep Reihe: Deep Dance Serie
Stil: Dance Erscheinungsjahr: 1998
CDs: 1 Spielzeit: 73:31
Trackliste:
Cue-Informationen:

FILE "filename.mp3" MP3
  TRACK 01 AUDIO
    INDEX 01 00:00:30
  TRACK 02 AUDIO
    INDEX 01 34:16:08
  TRACK 03 AUDIO
    INDEX 01 67:25:48
Wertung: (2)  
Hinzugefügt: 28 December 2009
RSS Feed
RSS Feed
Sprache
Deutsch Englisch Französisch
Mixsuche
Suchbegriff
Genauer Wortlaut
Alle Worte (UND)
Ein Wort (ODER)
Statistik
29581 Mixe eingetragen
28170 Tracklisten
Newsletter
E-Mail
Anmelden
Abmelden
SPONSOREN