Mixkatalog
 Einloggen
Login
Passwort

Deep Dance 049 Hits: 122  

Deep Dance 049


Kurzbeschreibung:
Deep präsentiert Deep Dance Volume 49 - Deep Summermix. Gemixt von DJ Deep. Mix ist in einer dünnen Papphülle erschienen.
 
Crew/DJ: Deep Reihe: DD Serie by Deep
Stil: Dance Erscheinungsjahr: 1997
Anzahl Tonträger: 1 Spielzeit: 73:50
Trackliste:
Cue-Informationen:

FILE "filename.mp3" MP3
  TRACK 01 AUDIO
    INDEX 01 00:00:00
  TRACK 02 AUDIO
    INDEX 01 33:54:58
  TRACK 03 AUDIO
    INDEX 01 54:26:55
Wertung: (1)  
Hinzugefügt: 28 December 2009
RSS Feed
RSS Feed
Sprache
Deutsch Englisch Französisch
Mixsuche
Suchbegriff
Genauer Wortlaut
Alle Worte (UND)
Ein Wort (ODER)
Statistik
36567 Mixe eingetragen
34630 Tracklisten
Newsletter
E-Mail
Anmelden
Abmelden
SPONSOREN