Mixkatalog
 Einloggen
Login
Passwort

Deep Dance 049 Hits: 4  

Deep Dance 049


Kurzbeschreibung:
Deep Records präsentiert Deep Dance Volume 49 - Deep Summermix. Gemixt von DJ Deep. Mix ist in einer dünnen Papphülle erschienen.
 
Crew/DJ: Deep Records Reihe: DD Serie by Deep
Stil: Dance Erscheinungsjahr: 1997
Anzahl Tonträger: 1 Spielzeit: 73:50
Trackliste:
    Deep Dance Take 49:
    Spieldauer 33'54
  1. Intro
  2. Bossi - Funky Technician
  3. Alexia - Uh La La La
  4. Shahin & Simon - The Rebel
  5. N.T.N. - Heartbeat
  6. Alexia - Uh La La La
  7. Daniel Aminati - I Want You Back
  8. Disco Nation - Rock Da Jam
  9. Ken Laszlo - Video Killed The Radio Star
  10. Chiara - Nowhere To Run
  11. Klubbheads - Discohopping
  12. Three 'N' One - Sin City
  13. Punk Anderson - Shave That Pussy
  14. Pay Jay - Da Move
  15. Bellini - Samba De Janeiro
  16. Sash! feat. Rodriguez - Ecuador
  17. Klubbheads - Discohopping
  18. Scatman John - Let It Go
  19. Brooklyn Bounce - Get Ready!
  20. Million - Money
  21. Celvin Rotane - Back Again
  22. Bibi - Together Again
  23. Nicki French - Ti Amo
  24. DJ Cook - Play My Track
  25. Red 5 - Lift Me Up
  26. Shahin & Simon - The Rebel
  27. Porn Kings - Amour
  28. DJ Zuul - It's The Day After The Party
  29. Jacynthe - Try My Love
  30. Amen UK! - People Of Love
  31. Deejay Chucky - Kick Da Bass
  32. Disco Nation - Rock Da Jam
  33. Toss & Turn - Flexx-ible
  34. Triple S - Keep Your Hand
  35. Gino Y. Thoka - Te Quierro Ya
  36. Red 5 - Lift Me Up
  37. Hypertrophy - Just Come Back To Me
  38. U96 - Seven Wonders
  39. Gorgeous - Don't Stop
  40. Sequential One - I Wanna Make U
  41. DJ Quicksilver - Free
  42. DJ Starmix - Take Me To The Top
  43. DJ Thoka - Party People
  44. Interactive - Wake Up
  45. DJ The Crow - Piece Of Mine
  46. Max Deejay - 2 The Vibes
  47. Linda M. - Rhythm Of Love
  48. DJ Tomko - House Goes To...
  49. B-Well - Nowhere Girl
    Deep Summermix 1:
    Spieldauer 20'31
  50. Intro
  51. Sunbrother - Tell Me What
  52. Tasha - Listen To Your Heart
  53. TNT - All I Wanna Do
  54. Loft - Long John Silver
  55. Papa Winnie - All Of My Heart
  56. T-Spoon - Sex On The Beach
  57. DJ Bobo - It's My Life
  58. Blue System - Body To Body
  59. Papa Winnie - World Of Fantasy
  60. Chilli feat. Carrapicho - Tic Tic Tac
  61. Sex Appeal - Life Goes Up, Life Goes Down
  62. 2 For Good - I'll Be Waiting For You
  63. Pandera - Joy & Fun
  64. Robin Cook - I Won't Let The Sun
  65. 2 Shy - You Give Me All I Need
  66. Maharadsha - You're My Heart
  67. Heath Hunter - Walking On Clouds
  68. Unique II - Do What You Please
    Deep Slow 7:
    Spieldauer 19'30
  69. Blackstreet - Who You With
  70. Sabrina Setlur - Glaubst Du Mir?
  71. Phemales - Love Don't Live Here Anymore
  72. Red - Where Are You Going To
  73. Black Attack - Bang Bang
  74. Outkast - Jazzy Belle
  75. Notorious B.I.G. - Hypnotize
  76. Soundcage - Ways Of Life
  77. 2 Young - Seasons In The Sun
  78. A.K. Swift - Light In Me
  79. Nana - Lonely
  80. Party People - Free Your Mind
  81. Sweetbox - I'll Die For You
  82. Hoodys - Every Hour
  83. Blue Boy - Remember Me
  84. C-Block - Time Is Tickin' Away
  85. Jam & Spoon feat. Plavka - Kaleidoscope Skies
  86. Sunrise - Open Your Eyes
  87. N'Sync - Here We Go
Cue-Informationen:

FILE "filename.mp3" MP3
  TRACK 01 AUDIO
    INDEX 01 00:00:00
  TRACK 02 AUDIO
    INDEX 01 33:54:58
  TRACK 03 AUDIO
    INDEX 01 54:26:55
Wertung: ()   Hinzugefügt: 28 December 2009
Bewerte als Erster diesen Mix:
RSS Feed
RSS Feed
Sprache
Deutsch Englisch Französisch
Mixsuche
Suchbegriff
Genauer Wortlaut
Alle Worte (UND)
Ein Wort (ODER)
Statistik
14805 Mixe eingetragen
14492 Tracklisten
Newsletter
E-Mail
Anmelden
Abmelden
SPONSOREN