Mixkatalog
 Einloggen
Login
Passwort

Deep Dance 045 Hits: 147  

Deep Dance 045


Kurzbeschreibung:
Deep präsentiert Deep Dance Volume 45. Gemixt von DJ Deep. Mix ist in der Pappbox erschienen.
 
Crew/DJ: Deep Reihe: Deep Dance Serie
Stil: Dance Erscheinungsjahr: 1996
CDs: 1 Spielzeit: 74:54
Trackliste:
Cue-Informationen:

FILE "filename.mp3" MP3
  TRACK 01 AUDIO
    INDEX 01 00:00:00
  TRACK 02 AUDIO
    INDEX 01 01:13:37
  TRACK 03 AUDIO
    INDEX 01 25:57:40
  TRACK 04 AUDIO
    INDEX 01 26:09:70
  TRACK 05 AUDIO
    INDEX 01 26:42:00
  TRACK 06 AUDIO
    INDEX 01 27:43:22
  TRACK 07 AUDIO
    INDEX 01 29:20:40
  TRACK 08 AUDIO
    INDEX 01 31:26:65
  TRACK 09 AUDIO
    INDEX 01 32:43:55
  TRACK 10 AUDIO
    INDEX 01 33:44:60
  TRACK 11 AUDIO
    INDEX 01 35:04:50
  TRACK 12 AUDIO
    INDEX 01 36:20:22
  TRACK 13 AUDIO
    INDEX 01 37:20:45
  TRACK 14 AUDIO
    INDEX 01 38:08:72
  TRACK 15 AUDIO
    INDEX 01 38:27:40
  TRACK 16 AUDIO
    INDEX 01 39:36:62
  TRACK 17 AUDIO
    INDEX 01 41:13:50
  TRACK 18 AUDIO
    INDEX 01 42:41:47
  TRACK 19 AUDIO
    INDEX 01 43:38:50
  TRACK 20 AUDIO
    INDEX 01 45:08:42
  TRACK 21 AUDIO
    INDEX 01 46:02:10
  TRACK 22 AUDIO
    INDEX 01 47:21:62
  TRACK 23 AUDIO
    INDEX 01 47:56:32
  TRACK 24 AUDIO
    INDEX 01 49:50:55
  TRACK 25 AUDIO
    INDEX 01 51:00:32
  TRACK 26 AUDIO
    INDEX 01 53:02:52
  TRACK 27 AUDIO
    INDEX 01 54:10:22
  TRACK 28 AUDIO
    INDEX 01 64:55:65
  TRACK 29 AUDIO
    INDEX 01 65:08:47
  TRACK 30 AUDIO
    INDEX 01 66:24:60
  TRACK 31 AUDIO
    INDEX 01 67:41:42
  TRACK 32 AUDIO
    INDEX 01 68:54:22
  TRACK 33 AUDIO
    INDEX 01 70:49:15
  TRACK 34 AUDIO
    INDEX 01 72:10:05
  TRACK 35 AUDIO
    INDEX 01 72:44:70
  TRACK 36 AUDIO
    INDEX 01 73:39:52
Wertung: (8)  
Hinzugefügt: 28 December 2009
RSS Feed
RSS Feed
Sprache
Deutsch Englisch Französisch
Mixsuche
Suchbegriff
Genauer Wortlaut
Alle Worte (UND)
Ein Wort (ODER)
Statistik
34691 Mixe eingetragen
32812 Tracklisten
Newsletter
E-Mail
Anmelden
Abmelden
SPONSOREN