Mixkatalog
 Einloggen
Login
Passwort

Deep Dance 029 Hits: 127  

Deep Dance 029


Kurzbeschreibung:
Deep präsentiert Deep Dance Volume 29. Gemixt von DJ Deep.
 
Crew/DJ: Deep Reihe: DD Serie by Deep
Stil: Dance Erscheinungsjahr: 1994
Anzahl Tonträger: 1 Spielzeit: 70:34
Trackliste:
Cue-Informationen:

FILE "filename.mp3" MP3 
  TRACK 01 AUDIO
    INDEX 01 00:00:00
  TRACK 02 AUDIO
    INDEX 01 31:19:50
  TRACK 03 AUDIO
    INDEX 01 50:28:00
Wertung: (1)  
Hinzugefügt: 24 December 2009
RSS Feed
RSS Feed
Sprache
Deutsch Englisch Französisch
Mixsuche
Suchbegriff
Genauer Wortlaut
Alle Worte (UND)
Ein Wort (ODER)
Statistik
36567 Mixe eingetragen
34630 Tracklisten
Newsletter
E-Mail
Anmelden
Abmelden
SPONSOREN