Mixkatalog
 Einloggen
Login
Passwort

Deep Dance 025 Hits: 379  

Deep Dance 025


Kurzbeschreibung:
Deep präsentiert Deep Dance Volume 25. Gemixt von DJ Deep.
 
Crew/DJ: Deep Reihe: Deep Dance Serie
Stil: Dance Erscheinungsjahr: 1994
CDs: 1 Spielzeit: 67:05
Trackliste:
Cue-Informationen:

FILE "filename.mp3" MP3 
  TRACK 01 AUDIO
    INDEX 01 00:00:00
  TRACK 02 AUDIO
    INDEX 01 33:28:09
  TRACK 03 AUDIO
    INDEX 01 39:11:03

Wertung: (14)  
Hinzugefügt: 23 December 2009
RSS Feed
RSS Feed
Sprache
Deutsch Englisch Französisch
Mixsuche
Suchbegriff
Genauer Wortlaut
Alle Worte (UND)
Ein Wort (ODER)
Statistik
30033 Mixe eingetragen
28406 Tracklisten
Newsletter
E-Mail
Anmelden
Abmelden
SPONSOREN