Mixkatalog
 Einloggen
Login
Passwort

Deep Dance 003 + 004 Hits: 4  

Deep Dance 003 + 004


Kurzbeschreibung:
Deep Records präsentiert Deep Dance Volume 3 & 4. Gemixt von DJ Deep. Auch bei diesem Mix gibt es keine Tracklisten mehr. Wer die fehlenden Tracks kennt, bitte mitteilen.
 
Crew/DJ: Deep Records Reihe: DD Serie by Deep
Stil: Dance Erscheinungsjahr: 1989
Anzahl Tonträger: 1 Spielzeit: 72:53
Trackliste:
    Deep Dance Take 3:
    Spieldauer 22'02
  1. Intro
  2. Lil' Louis - French Kiss
  3. Madonna - Express Yourself
  4. ???
  5. Black Box - Ride On Time
  6. Sonia - You'll Never Stop Me From Loving You
  7. Doug Lazy - Let It Roll
  8. Betty Boo - I Can′t Dance
  9. Expose - What You Don't Know
  10. Razzamatazz - Two Time Boy
  11. Paula Abdul - Cold Hearted
  12. Adeva - Warning
  13. Stevie B. - In My Eyes
  14. ???
  15. Inner City - Do You Love What You Feel
  16. The Beatmasters - Ska Train
  17. Monie Love - Grandpa′s Party
  18. Pet Shop Boys - It's Alright
  19. Honesty '69 - French Kiss
  20. Soul II Soul - Back To Life
  21. Milli Vanilli - Blame It On The Rain
  22. Bobby Brown - On Our Own
  23. Collina - Babe, What's Goin On
  24. ???
  25. Neneh Cherry - Manchild
  26. ???
  27. Schoolly D - Dedication To All B-Boys
    Deep Dance Take 4:
    Spieldauer 25'02
  28. Intro
  29. S'Express - Superfly Guy
  30. ???
  31. Black Box - Ride On Time
  32. ABC - The Real Thing
  33. Cherry - Magic Holiday
  34. Pedro Ramon - Te Quiero
  35. L.A. Mix feat. Kevin Henry - Love Together
  36. Simphonia - Can't Get Over Your Love
  37. Kaoma - Lambada
  38. Sydney Youngblood - If Only I Could
  39. Loleatta Holloway - Love Sensation
  40. Mac Thornhill - It's All Right
  41. Amnesia - It's A Dream (Remix)
  42. Cappella - House Energy Revenge
  43. Steve 'Silk' Hurley - Work It Out
  44. Hi Fi - Callin' Batman
  45. Alisha Warren - Touch Me
  46. Starlight - Numero Uno
  47. Evie - Situations Don't Go
  48. Erasure - Supernature
  49. Pierre's Phantasy Club - Summertime (Is Get Busy Time)
  50. Technotronic feat. Felly - Pump Up The Jam
  51. Damian - The Time Warp
  52. ???
    DecaDance 2:
    Spieldauer 25'48
  53. Phil Collins - In The Air Tonight
  54. Marvin Gaye - Sexual Healing
  55. Falco - Rock Me Amadeus
  56. Ofra Haza - Im Nin 'Alu
  57. Milli Vanilli - Girl You Know It's True
  58. Eric B. & Rakim - Paid In Full
  59. Madonna - La Isla Bonita
  60. George Michael - I Want Your Sex
  61. Grandmaster Flash - The Message
  62. Sandra - Maria Magdalena
  63. Baltimora - Tarzan Boy
  64. Imagination - Just An Illusion
  65. Hot Chocolate - You Sexy Thing
  66. RAF - Self Control
  67. Shalamar - Night To Remember
  68. Lionel Richie - All Night Long
  69. Indeep - Last Night A DJ Saved My Life
  70. Prince - Kiss
  71. Alexander O'Neal - Fake
  72. S.O.S. - The Finest
  73. Rick Astley - Never Gonna Give You Up
  74. M/A/R/R/S - Pump Up The Volume
  75. P. Lion - Happy Children
  76. Visage - Fade To Grey
  77. Billy Ocean - Caribbean Queen (No More Love On The Run)
  78. Hues Corporation - Rock The Boat
  79. Taylor Dayne - Tell It To My Heart
  80. My Mine - Hypnotic Tango
  81. ABC - The Look Of Love
Cue-Informationen:

FILE "filename.mp3" MP3
  TRACK 01 AUDIO
    INDEX 01 00:00:00
  TRACK 02 AUDIO
    INDEX 01 22:02:66
  TRACK 03 AUDIO
    INDEX 01 47:05:16
Wertung: (1)   Hinzugefügt: 23 December 2009
RSS Feed
RSS Feed
Sprache
Deutsch Englisch Französisch
Mixsuche
Suchbegriff
Genauer Wortlaut
Alle Worte (UND)
Ein Wort (ODER)
Statistik
14805 Mixe eingetragen
14492 Tracklisten
Newsletter
E-Mail
Anmelden
Abmelden
SPONSOREN