Mixkatalog
 Einloggen
Login
Passwort

The Best Of Deep Fox 1 Hits: 45  

The Best Of Deep Fox 1


Kurzbeschreibung:
Deep präsentiert den The Best Of Deep Fox Volume 1. Gemixt von DJ Deep. Mix erschien 2016 neu als Super Deep Fox Volume 1.
 
Crew/DJ: Deep Reihe: Deep Fox
Stil: Fox Erscheinungsjahr: 1999
CDs: 1 Spielzeit: 74:13
Trackliste:
Cue-Informationen:

FILE "filename.mp3" MP3
  TRACK 01 AUDIO
    INDEX 00 00:00:00
  TRACK 02 AUDIO
    INDEX 01 15:15:06
  TRACK 03 AUDIO
    INDEX 01 30:51:01
  TRACK 04 AUDIO
    INDEX 01 45:01:00
  TRACK 05 AUDIO
    INDEX 01 57:09:74
Wertung: (77)  
Hinzugefügt: 23 December 2009
RSS Feed
RSS Feed
Sprache
Deutsch Englisch Französisch
Mixsuche
Suchbegriff
Genauer Wortlaut
Alle Worte (UND)
Ein Wort (ODER)
Statistik
32432 Mixe eingetragen
30813 Tracklisten
Newsletter
E-Mail
Anmelden
Abmelden
SPONSOREN