Mixkatalog
 Einloggen
Login
Passwort

Deep Dance 123½ Hits: 106  

Deep Dance 123½


Kurzbeschreibung:
Deep Magic Dance 123.5, The Lord of the Mixes - The Power of Mix Part 2 of 3.
 
Crew/DJ: Deep Reihe: DD Serie Erstauflage
Stil: Dance Erscheinungsjahr: 2009
Anzahl Tonträger: 1 Spielzeit: 67:35
Trackliste:
Cue-Informationen:

FILE "filename.mp3" MP3
  TRACK 01 AUDIO
    INDEX 01 00:00:00
  TRACK 02 AUDIO
    INDEX 01 00:14:45
  TRACK 03 AUDIO
    INDEX 01 28:32:41
Wertung: (1)  
Hinzugefügt: 14 December 2009
RSS Feed
RSS Feed
Sprache
Deutsch Englisch Französisch
Mixsuche
Suchbegriff
Genauer Wortlaut
Alle Worte (UND)
Ein Wort (ODER)
Statistik
12962 Mixe eingetragen
12671 Tracklisten
Newsletter
E-Mail
Anmelden
Abmelden
SPONSOREN