Mixkatalog
SPONSOREN
 Einloggen
Login
Passwort

Deep Dance 136 Hits: 224  

Deep Dance 136


Kurzbeschreibung:
Deep präsentiert den Deep Dance Episode 136 - Deep Wars. Teil 2, der Deep Trance Anthems ist Sonnydeejay's - 99' Trance Anthems!
 
Crew/DJ: Deep Reihe: DD Serie Erstauflage
Stil: Dance Erscheinungsjahr: 2011
Anzahl Tonträger: 1 Spielzeit: 73:04
Trackliste:
Cue-Informationen:

FILE "filename.mp3" MP3
  TRACK 01 AUDIO
    INDEX 01 00:00:00
  TRACK 02 AUDIO
    INDEX 01 01:09:48
  TRACK 03 AUDIO
    INDEX 01 46:38:18
Wertung: (2)  
Hinzugefügt: 5 December 2011
RSS Feed
RSS Feed
Sprache
Deutsch Englisch Französisch
Mixsuche
Suchbegriff
Genauer Wortlaut
Alle Worte (UND)
Ein Wort (ODER)
Statistik
35784 Mixe eingetragen
33843 Tracklisten
Newsletter
E-Mail
Anmelden
Abmelden
SPONSOREN