Mixkatalog
SPONSOREN
 Einloggen
Login
Passwort

Edition 09 Hits: 175  

Edition 09


Kurzbeschreibung:
Sixty-Six Records präsentiert Club 66 Edition 9, gemixt von DJ 66.
 
Crew/DJ: Club 66 Reihe: Story
Stil: Dance Erscheinungsjahr: 2011
Anzahl Tonträger: 1 Spielzeit: 79:43
Trackliste:
Cue-Informationen:

FILE "filename.mp3" MP3
  TRACK 01 AUDIO
    INDEX 01 00:00:00
  TRACK 02 AUDIO
    INDEX 01 00:27:73
  TRACK 03 AUDIO
    INDEX 01 01:16:10
  TRACK 04 AUDIO
    INDEX 01 01:42:60
  TRACK 05 AUDIO
    INDEX 01 02:37:58
  TRACK 06 AUDIO
    INDEX 01 03:22:60
  TRACK 07 AUDIO
    INDEX 01 04:23:17
  TRACK 08 AUDIO
    INDEX 01 05:24:05
  TRACK 09 AUDIO
    INDEX 01 07:30:62
  TRACK 10 AUDIO
    INDEX 01 09:08:65
  TRACK 11 AUDIO
    INDEX 01 09:49:32
  TRACK 12 AUDIO
    INDEX 01 11:12:18
  TRACK 13 AUDIO
    INDEX 01 12:41:61
  TRACK 14 AUDIO
    INDEX 01 13:35:68
  TRACK 15 AUDIO
    INDEX 01 14:31:52
  TRACK 16 AUDIO
    INDEX 01 14:58:68
  TRACK 17 AUDIO
    INDEX 01 15:55:36
  TRACK 18 AUDIO
    INDEX 01 17:31:10
  TRACK 19 AUDIO
    INDEX 01 18:39:53
  TRACK 20 AUDIO
    INDEX 01 20:09:70
  TRACK 21 AUDIO
    INDEX 01 21:44:65
  TRACK 22 AUDIO
    INDEX 01 23:01:62
  TRACK 23 AUDIO
    INDEX 01 24:00:01
  TRACK 24 AUDIO
    INDEX 01 24:44:24
  TRACK 25 AUDIO
    INDEX 01 24:59:06
  TRACK 26 AUDIO
    INDEX 01 26:09:18
  TRACK 27 AUDIO
    INDEX 01 27:17:44
  TRACK 28 AUDIO
    INDEX 01 28:17:42
  TRACK 29 AUDIO
    INDEX 01 29:10:06
  TRACK 30 AUDIO
    INDEX 01 30:25:06
  TRACK 31 AUDIO
    INDEX 01 31:41:71
  TRACK 32 AUDIO
    INDEX 01 33:04:34
  TRACK 33 AUDIO
    INDEX 01 33:49:34
  TRACK 34 AUDIO
    INDEX 01 35:26:71
  TRACK 35 AUDIO
    INDEX 01 36:27:30
  TRACK 36 AUDIO
    INDEX 01 37:58:10
  TRACK 37 AUDIO
    INDEX 01 39:00:01
  TRACK 38 AUDIO
    INDEX 01 40:38:20
  TRACK 39 AUDIO
    INDEX 01 41:34:70
  TRACK 40 AUDIO
    INDEX 01 42:42:33
  TRACK 41 AUDIO
    INDEX 01 44:13:07
  TRACK 42 AUDIO
    INDEX 01 45:16:33
  TRACK 43 AUDIO
    INDEX 01 45:31:51
  TRACK 44 AUDIO
    INDEX 01 47:05:57
  TRACK 45 AUDIO
    INDEX 01 48:29:42
  TRACK 46 AUDIO
    INDEX 01 50:00:50
  TRACK 47 AUDIO
    INDEX 01 51:30:06
  TRACK 48 AUDIO
    INDEX 01 52:32:19
  TRACK 49 AUDIO
    INDEX 01 52:45:54
  TRACK 50 AUDIO
    INDEX 01 53:41:65
  TRACK 51 AUDIO
    INDEX 01 55:21:46
  TRACK 52 AUDIO
    INDEX 01 57:09:46
  TRACK 53 AUDIO
    INDEX 01 58:43:21
  TRACK 54 AUDIO
    INDEX 01 60:34:54
  TRACK 55 AUDIO
    INDEX 01 61:31:24
  TRACK 56 AUDIO
    INDEX 01 63:17:74
  TRACK 57 AUDIO
    INDEX 01 64:00:01
  TRACK 58 AUDIO
    INDEX 01 65:23:37
  TRACK 59 AUDIO
    INDEX 01 66:36:40
  TRACK 60 AUDIO
    INDEX 01 68:07:37
  TRACK 61 AUDIO
    INDEX 01 68:58:06
  TRACK 62 AUDIO
    INDEX 01 70:06:16
  TRACK 63 AUDIO
    INDEX 01 71:50:27
  TRACK 64 AUDIO
    INDEX 01 73:40:49
  TRACK 65 AUDIO
    INDEX 01 76:05:55
  TRACK 66 AUDIO
    INDEX 01 78:21:43
Wertung: (1)  
Hinzugefügt: 5 December 2011
RSS Feed
RSS Feed
Sprache
Deutsch Englisch Französisch
Mixsuche
Suchbegriff
Genauer Wortlaut
Alle Worte (UND)
Ein Wort (ODER)
Statistik
35809 Mixe eingetragen
33873 Tracklisten
Newsletter
E-Mail
Anmelden
Abmelden
SPONSOREN