Mixkatalog
SPONSOREN
 Einloggen
Login
Passwort

The History Of Miami Bass 1 Hits: 41  

The History Of Miami Bass 1


Kurzbeschreibung:
DJ Lucky präsentiert The History Of Miami Bass Volume 1.
 
Crew/DJ: DJ Lucky Reihe: Miami
Stil: Freestyle Erscheinungsjahr: 2003
Anzahl Tonträger: 1 Spielzeit: 74:18
Trackliste:
Cue-Informationen:

FILE "filename.mp3" MP3
  TRACK 01 AUDIO
    INDEX 01 00:00:00
  TRACK 02 AUDIO
    INDEX 01 00:46:26
  TRACK 03 AUDIO
    INDEX 01 02:30:06
  TRACK 04 AUDIO
    INDEX 01 03:37:07
  TRACK 05 AUDIO
    INDEX 01 04:39:68
  TRACK 06 AUDIO
    INDEX 01 05:50:38
  TRACK 07 AUDIO
    INDEX 01 07:28:51
  TRACK 08 AUDIO
    INDEX 01 08:54:37
  TRACK 09 AUDIO
    INDEX 01 10:26:54
  TRACK 10 AUDIO
    INDEX 01 12:14:21
  TRACK 11 AUDIO
    INDEX 01 13:46:40
  TRACK 12 AUDIO
    INDEX 01 15:02:53
  TRACK 13 AUDIO
    INDEX 01 16:18:37
  TRACK 14 AUDIO
    INDEX 01 17:04:02
  TRACK 15 AUDIO
    INDEX 01 18:19:29
  TRACK 16 AUDIO
    INDEX 01 19:31:02
  TRACK 17 AUDIO
    INDEX 01 20:38:47
  TRACK 18 AUDIO
    INDEX 01 21:34:52
  TRACK 19 AUDIO
    INDEX 01 22:49:12
  TRACK 20 AUDIO
    INDEX 01 24:22:10
  TRACK 21 AUDIO
    INDEX 01 25:28:37
  TRACK 22 AUDIO
    INDEX 01 27:03:41
  TRACK 23 AUDIO
    INDEX 01 28:01:41
  TRACK 24 AUDIO
    INDEX 01 28:45:05
  TRACK 25 AUDIO
    INDEX 01 29:57:19
  TRACK 26 AUDIO
    INDEX 01 31:05:59
  TRACK 27 AUDIO
    INDEX 01 33:26:37
  TRACK 28 AUDIO
    INDEX 01 35:11:68
  TRACK 29 AUDIO
    INDEX 01 36:23:44
  TRACK 30 AUDIO
    INDEX 01 38:02:36
  TRACK 31 AUDIO
    INDEX 01 39:01:40
  TRACK 32 AUDIO
    INDEX 01 39:43:28
  TRACK 33 AUDIO
    INDEX 01 40:39:71
  TRACK 34 AUDIO
    INDEX 01 41:22:17
  TRACK 35 AUDIO
    INDEX 01 42:05:35
  TRACK 36 AUDIO
    INDEX 01 42:48:67
  TRACK 37 AUDIO
    INDEX 01 44:02:74
  TRACK 38 AUDIO
    INDEX 01 44:54:16
  TRACK 39 AUDIO
    INDEX 01 46:45:60
  TRACK 40 AUDIO
    INDEX 01 48:00:37
  TRACK 41 AUDIO
    INDEX 01 49:30:22
  TRACK 42 AUDIO
    INDEX 01 50:41:58
  TRACK 43 AUDIO
    INDEX 01 51:27:09
  TRACK 44 AUDIO
    INDEX 01 52:45:48
  TRACK 45 AUDIO
    INDEX 01 54:16:61
  TRACK 46 AUDIO
    INDEX 01 55:33:03
  TRACK 47 AUDIO
    INDEX 01 56:26:73
  TRACK 48 AUDIO
    INDEX 01 60:45:29
Wertung: (4)  
Hinzugefügt: 15 November 2011
RSS Feed
RSS Feed
Sprache
Deutsch Englisch Französisch
Mixsuche
Suchbegriff
Genauer Wortlaut
Alle Worte (UND)
Ein Wort (ODER)
Statistik
35784 Mixe eingetragen
33843 Tracklisten
Newsletter
E-Mail
Anmelden
Abmelden
SPONSOREN