Mixkatalog
 Einloggen
Login
Passwort

Metal Cross Mix Hits: 275  

Metal Cross Mix


Kurzbeschreibung:
DJ Dieb Faker präsentiert Metal Cross Mix.
 
Crew/DJ: DJ Dieb Faker Reihe: Sonstige
Stil: Metal Erscheinungsjahr: 2004
Anzahl Tonträger: 1 Spielzeit: 80:37
Trackliste:
Cue-Informationen:

FILE "filename.mp3" MP3
  TRACK 01 AUDIO
    INDEX 01 00:00:00
  TRACK 02 AUDIO
    INDEX 01 00:52:12
  TRACK 03 AUDIO
    INDEX 01 02:18:76
  TRACK 04 AUDIO
    INDEX 01 04:59:98
  TRACK 05 AUDIO
    INDEX 01 07:29:75
  TRACK 06 AUDIO
    INDEX 01 09:38:22
  TRACK 07 AUDIO
    INDEX 01 11:11:78
  TRACK 08 AUDIO
    INDEX 01 12:26:56
  TRACK 09 AUDIO
    INDEX 01 15:02:13
  TRACK 10 AUDIO
    INDEX 01 16:18:15
  TRACK 11 AUDIO
    INDEX 01 18:38:90
  TRACK 12 AUDIO
    INDEX 01 21:07:67
  TRACK 13 AUDIO
    INDEX 01 23:57:27
  TRACK 14 AUDIO
    INDEX 01 27:31:78
  TRACK 15 AUDIO
    INDEX 01 28:14:72
  TRACK 16 AUDIO
    INDEX 01 29:57:54
  TRACK 17 AUDIO
    INDEX 01 33:31:51
  TRACK 18 AUDIO
    INDEX 01 34:37:31
  TRACK 19 AUDIO
    INDEX 01 36:42:99
  TRACK 20 AUDIO
    INDEX 01 38:24:14
  TRACK 21 AUDIO
    INDEX 01 39:26:27
  TRACK 22 AUDIO
    INDEX 01 42:31:61
  TRACK 23 AUDIO
    INDEX 01 45:11:88
  TRACK 24 AUDIO
    INDEX 01 47:18:55
  TRACK 25 AUDIO
    INDEX 01 49:14:46
  TRACK 26 AUDIO
    INDEX 01 51:52:09
  TRACK 27 AUDIO
    INDEX 01 53:58:66
  TRACK 28 AUDIO
    INDEX 01 55:46:98
  TRACK 29 AUDIO
    INDEX 01 57:58:42
  TRACK 30 AUDIO
    INDEX 01 59:15:00
  TRACK 31 AUDIO
    INDEX 01 64:21:17
  TRACK 32 AUDIO
    INDEX 01 66:09:18
  TRACK 33 AUDIO
    INDEX 01 68:24:12
  TRACK 34 AUDIO
    INDEX 01 72:01:31
  TRACK 35 AUDIO
    INDEX 01 75:22:11
  TRACK 36 AUDIO
    INDEX 01 78:22:71
Wertung: (2)  
Hinzugefügt: 28 October 2011
RSS Feed
RSS Feed
Sprache
Deutsch Englisch Französisch
Mixsuche
Suchbegriff
Genauer Wortlaut
Alle Worte (UND)
Ein Wort (ODER)
Statistik
35707 Mixe eingetragen
33762 Tracklisten
Newsletter
E-Mail
Anmelden
Abmelden
SPONSOREN