Mixkatalog
 Einloggen
Login
Passwort

Projekt 052 Hits: 149  

Projekt 052


Kurzbeschreibung:
Gemini präsentiert Projekt 52. Der Titel lautet hier noch Techno House Mix (THM 52).
 
Crew/DJ: Gemini Reihe: Story
Stil: Techno Erscheinungsjahr: 1999
Anzahl Tonträger: 1 Spielzeit: 73:01
Trackliste:
Cue-Informationen:

FILE "filename.mp3" MP3
  TRACK 01 AUDIO
    INDEX 01 00:00:00
  TRACK 02 AUDIO
    INDEX 01 09:59:64
  TRACK 03 AUDIO
    INDEX 01 16:56:56
  TRACK 04 AUDIO
    INDEX 01 22:51:20
  TRACK 05 AUDIO
    INDEX 01 30:44:16
  TRACK 06 AUDIO
    INDEX 01 37:51:54
  TRACK 07 AUDIO
    INDEX 01 46:28:66
  TRACK 08 AUDIO
    INDEX 01 52:30:64
  TRACK 09 AUDIO
    INDEX 01 59:36:14
  TRACK 10 AUDIO
    INDEX 01 66:38:28
  TRACK 11 AUDIO
    INDEX 01 72:05:34
Wertung: (6)  
Hinzugefügt: 21 October 2011
RSS Feed
RSS Feed
Sprache
Deutsch Englisch Französisch
Mixsuche
Suchbegriff
Genauer Wortlaut
Alle Worte (UND)
Ein Wort (ODER)
Statistik
35712 Mixe eingetragen
33766 Tracklisten
Newsletter
E-Mail
Anmelden
Abmelden
SPONSOREN