Mixkatalog
 Einloggen
Login
Passwort

Beat-Mix Party 2 Hits: 107  

Beat-Mix Party 2


Kurzbeschreibung:
Ruhrpott Records präsentiert Beat-Mix Party Volume 2. Der beste Party-Mix aller Zeiten geht in die Zweite Runde. Aus Über 100 Meisterwerken der letzten 30 Jahre ist wieder ein Meisterwerk entstanden.
 
Crew/DJ: Ruhrpott Records Reihe: Party Mix
Stil: Party Erscheinungsjahr: 2005
Anzahl Tonträger: 1 Spielzeit: 73:16
Trackliste:
Cue-Informationen:

FILE "filename.mp3" MP3
  TRACK 01 AUDIO
    INDEX 01 00:00:00
  TRACK 02 AUDIO
    INDEX 01 00:31:02
  TRACK 03 AUDIO
    INDEX 01 06:42:02
  TRACK 04 AUDIO
    INDEX 01 12:27:13
  TRACK 05 AUDIO
    INDEX 01 17:50:27
  TRACK 06 AUDIO
    INDEX 01 24:19:70
  TRACK 07 AUDIO
    INDEX 01 32:26:65
  TRACK 08 AUDIO
    INDEX 01 36:09:21
  TRACK 09 AUDIO
    INDEX 01 41:00:40
  TRACK 10 AUDIO
    INDEX 01 46:28:49
  TRACK 11 AUDIO
    INDEX 01 52:02:53
  TRACK 12 AUDIO
    INDEX 01 56:20:62
  TRACK 13 AUDIO
    INDEX 01 61:55:60
  TRACK 14 AUDIO
    INDEX 01 66:25:23
  TRACK 15 AUDIO
    INDEX 01 69:08:34
Wertung: (3)  
Hinzugefügt: 28 November 2009
RSS Feed
RSS Feed
Sprache
Deutsch Englisch Französisch
Mixsuche
Suchbegriff
Genauer Wortlaut
Alle Worte (UND)
Ein Wort (ODER)
Statistik
36721 Mixe eingetragen
34784 Tracklisten
Newsletter
E-Mail
Anmelden
Abmelden
SPONSOREN