Mixkatalog
 Einloggen
Login
Passwort

Beat-Mix Party 1 Hits: 74  

Beat-Mix Party 1


Kurzbeschreibung:
Ruhrpott Records präsentiert Beat-Mix Party Volume 1. Die beste Partymusik der letzten 30 Jahre in einem Mix.
 
Crew/DJ: Ruhrpott Records Reihe: Party Mix
Stil: Party Erscheinungsjahr: 2004
Anzahl Tonträger: 1 Spielzeit: 79:01
Trackliste:
Cue-Informationen:

FILE "filename.mp3" MP3
  TRACK 01 AUDIO
    INDEX 01 00:00:00
  TRACK 02 AUDIO
    INDEX 01 00:49:17
  TRACK 03 AUDIO
    INDEX 01 06:34:45
  TRACK 04 AUDIO
    INDEX 01 11:48:05
  TRACK 05 AUDIO
    INDEX 01 17:40:65
  TRACK 06 AUDIO
    INDEX 01 23:40:11
  TRACK 07 AUDIO
    INDEX 01 29:09:45
  TRACK 08 AUDIO
    INDEX 01 35:02:44
  TRACK 09 AUDIO
    INDEX 01 40:52:73
  TRACK 10 AUDIO
    INDEX 01 47:07:22
  TRACK 11 AUDIO
    INDEX 01 53:01:23
  TRACK 12 AUDIO
    INDEX 01 59:11:38
  TRACK 13 AUDIO
    INDEX 01 65:41:06
Wertung: (3)  
Hinzugefügt: 28 November 2009
RSS Feed
RSS Feed
Sprache
Deutsch Englisch Französisch
Mixsuche
Suchbegriff
Genauer Wortlaut
Alle Worte (UND)
Ein Wort (ODER)
Statistik
36328 Mixe eingetragen
34422 Tracklisten
Newsletter
E-Mail
Anmelden
Abmelden
SPONSOREN