Mixkatalog
 Einloggen
Login
Passwort

Special Hits: 73  

Special


Kurzbeschreibung:
Deep präsentiert Deep Special.
 
Crew/DJ: Deep Reihe: Deep Sonstige
Stil: Dance Erscheinungsjahr: 2010
Anzahl Tonträger: 1 Spielzeit: 76:26
Trackliste:
Cue-Informationen:

FILE "filename.mp3" MP3
  TRACK 01 AUDIO
    INDEX 01 00:00:00
  TRACK 02 AUDIO
    INDEX 01 17:41:73
  TRACK 03 AUDIO
    INDEX 01 36:06:01
  TRACK 04 AUDIO
    INDEX 01 57:58:50
Wertung: ()  
Hinzugefügt: 12 September 2011
Bewerte als Erster diesen Mix:
RSS Feed
RSS Feed
Sprache
Deutsch Englisch Französisch
Mixsuche
Suchbegriff
Genauer Wortlaut
Alle Worte (UND)
Ein Wort (ODER)
Statistik
36328 Mixe eingetragen
34422 Tracklisten
Newsletter
E-Mail
Anmelden
Abmelden
SPONSOREN