Mixkatalog
 Einloggen
Login
Passwort

Party Compilation 18 Hits: 92  

Party Compilation 18


Kurzbeschreibung:
Studio 33 präsentiert die Party Compilation Volume 18 - Der Deutsche Partykracher 2, ...Pump It Up!
 
Crew/DJ: Studio 33 Reihe: Party Compilation
Stil: Party Erscheinungsjahr: 2006
Anzahl Tonträger: 1 Spielzeit: 72:00
Trackliste:
Cue-Informationen:

FILE "filename.mp3" MP3
  TRACK 01 AUDIO
    INDEX 01 00:00:00
  TRACK 02 AUDIO
    INDEX 01 00:18:39
  TRACK 03 AUDIO
    INDEX 01 06:09:54
  TRACK 04 AUDIO
    INDEX 01 12:20:64
  TRACK 05 AUDIO
    INDEX 01 16:57:25
  TRACK 06 AUDIO
    INDEX 01 20:43:05
  TRACK 07 AUDIO
    INDEX 01 24:46:56
  TRACK 08 AUDIO
    INDEX 01 29:33:09
  TRACK 09 AUDIO
    INDEX 01 35:01:38
  TRACK 10 AUDIO
    INDEX 01 39:08:15
  TRACK 11 AUDIO
    INDEX 01 42:47:72
  TRACK 12 AUDIO
    INDEX 01 47:01:40
  TRACK 13 AUDIO
    INDEX 01 51:38:00
  TRACK 14 AUDIO
    INDEX 01 56:43:44
  TRACK 15 AUDIO
    INDEX 01 61:10:62
  TRACK 16 AUDIO
    INDEX 01 66:39:33
Wertung: (1)  
Hinzugefügt: 14 November 2009
RSS Feed
RSS Feed
Sprache
Deutsch Englisch Französisch
Mixsuche
Suchbegriff
Genauer Wortlaut
Alle Worte (UND)
Ein Wort (ODER)
Statistik
14581 Mixe eingetragen
14271 Tracklisten
Newsletter
E-Mail
Anmelden
Abmelden
SPONSOREN