Mixkatalog
 Einloggen
Login
Passwort

Oberbayern Fox-Party 09 Hits: 200  

Oberbayern Fox-Party 09


Kurzbeschreibung:
Helmut aus Mallorca präsentiert die Studio 33 Oberbayern Fox-Party Volume 9, gemixt von DJ Summer.
 
Crew/DJ: Studio 33 Reihe: Oberbayern
Stil: Party Erscheinungsjahr: 2001
Anzahl Tonträger: 1 Spielzeit: 71:05
Trackliste:
Cue-Informationen:

FILE "filename.mp3" MP3
  TRACK 01 AUDIO
    INDEX 01 00:00:00
  TRACK 02 AUDIO
    INDEX 01 00:16:12
  TRACK 03 AUDIO
    INDEX 01 15:08:72
  TRACK 04 AUDIO
    INDEX 01 24:42:25
  TRACK 05 AUDIO
    INDEX 01 36:02:49
  TRACK 06 AUDIO
    INDEX 01 48:37:39
  TRACK 07 AUDIO
    INDEX 01 57:37:48
  TRACK 08 AUDIO
    INDEX 01 67:10:32
Wertung: (1)  
Hinzugefügt: 11 November 2009
RSS Feed
RSS Feed
Sprache
Deutsch Englisch Französisch
Mixsuche
Suchbegriff
Genauer Wortlaut
Alle Worte (UND)
Ein Wort (ODER)
Statistik
13118 Mixe eingetragen
12827 Tracklisten
Newsletter
E-Mail
Anmelden
Abmelden
SPONSOREN