Mixkatalog
 Einloggen
Login
Passwort

Black Flava 1 Hits: 86  

Black Flava 1


Kurzbeschreibung:
Mixxx Tool Rec. präsentiert Black Flava Volume 1, Finest Black Music In The Mix, gemixt von DJ's 4 DJ's.
 
Crew/DJ: Mixxx Tool Records Reihe: Sonstige
Stil: RnB Erscheinungsjahr: 2003
CDs: 1 Spielzeit: 77:15
Trackliste:
Cue-Informationen:

FILE "filename.mp3" MP3
  TRACK 01 AUDIO
    INDEX 01 00:00:00
  TRACK 02 AUDIO
    INDEX 01 01:06:05
  TRACK 03 AUDIO
    INDEX 01 02:17:05
  TRACK 04 AUDIO
    INDEX 01 04:57:10
  TRACK 05 AUDIO
    INDEX 01 06:18:55
  TRACK 06 AUDIO
    INDEX 01 08:25:70
  TRACK 07 AUDIO
    INDEX 01 09:59:65
  TRACK 08 AUDIO
    INDEX 01 11:10:35
  TRACK 09 AUDIO
    INDEX 01 12:44:20
  TRACK 10 AUDIO
    INDEX 01 15:11:70
  TRACK 11 AUDIO
    INDEX 01 16:17:35
  TRACK 12 AUDIO
    INDEX 01 17:42:10
  TRACK 13 AUDIO
    INDEX 01 20:44:15
  TRACK 14 AUDIO
    INDEX 01 22:39:25
  TRACK 15 AUDIO
    INDEX 01 24:45:15
  TRACK 16 AUDIO
    INDEX 01 26:21:40
  TRACK 17 AUDIO
    INDEX 01 27:29:55
  TRACK 18 AUDIO
    INDEX 01 29:15:60
  TRACK 19 AUDIO
    INDEX 01 30:39:05
  TRACK 20 AUDIO
    INDEX 01 31:59:55
  TRACK 21 AUDIO
    INDEX 01 33:28:25
  TRACK 22 AUDIO
    INDEX 01 36:03:70
  TRACK 23 AUDIO
    INDEX 01 37:05:35
  TRACK 24 AUDIO
    INDEX 01 39:21:00
  TRACK 25 AUDIO
    INDEX 01 40:03:35
  TRACK 26 AUDIO
    INDEX 01 41:43:25
  TRACK 27 AUDIO
    INDEX 01 43:43:10
  TRACK 28 AUDIO
    INDEX 01 45:34:55
  TRACK 29 AUDIO
    INDEX 01 46:55:10
  TRACK 30 AUDIO
    INDEX 01 47:56:05
  TRACK 31 AUDIO
    INDEX 01 49:36:05
  TRACK 32 AUDIO
    INDEX 01 51:10:35
  TRACK 33 AUDIO
    INDEX 01 52:31:65
  TRACK 34 AUDIO
    INDEX 01 53:32:50
  TRACK 35 AUDIO
    INDEX 01 55:17:65
  TRACK 36 AUDIO
    INDEX 01 56:11:20
  TRACK 37 AUDIO
    INDEX 01 57:25:35
  TRACK 38 AUDIO
    INDEX 01 59:05:65
  TRACK 39 AUDIO
    INDEX 01 59:49:00
  TRACK 40 AUDIO
    INDEX 01 61:32:65
  TRACK 41 AUDIO
    INDEX 01 63:14:15
  TRACK 42 AUDIO
    INDEX 01 64:50:40
  TRACK 43 AUDIO
    INDEX 01 65:46:45
  TRACK 44 AUDIO
    INDEX 01 67:04:60
  TRACK 45 AUDIO
    INDEX 01 68:32:30
  TRACK 46 AUDIO
    INDEX 01 69:09:10
  TRACK 47 AUDIO
    INDEX 01 70:46:00
  TRACK 48 AUDIO
    INDEX 01 71:58:55
  TRACK 49 AUDIO
    INDEX 01 73:46:65
  TRACK 50 AUDIO
    INDEX 01 75:52:35
Wertung: (1)  
Hinzugefügt: 31 August 2011
RSS Feed
RSS Feed
Sprache
Deutsch Englisch Französisch
Mixsuche
Suchbegriff
Genauer Wortlaut
Alle Worte (UND)
Ein Wort (ODER)
Statistik
34688 Mixe eingetragen
32809 Tracklisten
Newsletter
E-Mail
Anmelden
Abmelden
SPONSOREN